<?xml version="1.0" standalone="no"?>
<!DOCTYPE svg PUBLIC "-//W3C//DTD SVG 1.1//EN" "http://www.w3.org/Graphics/SVG/1.1/DTD/svg11.dtd" >
<svg xmlns="http://www.w3.org/2000/svg">
<metadata>Generated by IcoMoon</metadata>
<defs>
<font id="mercado-t" horiz-adv-x="1024">
<font-face units-per-em="1024" ascent="960" descent="-64" />
<missing-glyph horiz-adv-x="1024" />
<glyph unicode="&#x20;" horiz-adv-x="512" d="" />
<glyph unicode="&#xe900;" glyph-name="business" d="M513.229 221.082v0s-0.273 0-0.273 0c0 0-0.273 0-0.41 0 0 0 0 0 0 0s-0.137 0-0.273 0v0c-27.034-0.546-49.562-21.845-51.473-49.015l-11.196-161.929h40.55l11.059 159.061c0.41 6.144 5.598 11.059 11.742 11.332 5.734-0.273 10.377-4.642 10.923-10.377l15.701-160.154h40.687l-16.111 164.113c-2.731 26.351-24.439 46.285-50.79 46.831zM349.116 10.138h40.687l30.583 391.168h-40.55l-30.72-391.168zM512 720.111c45.739 0 82.876 37.137 82.876 82.876s-37.137 82.876-82.876 82.876-82.876-37.137-82.876-82.876 37.137-82.876 82.876-82.876zM512 845.312c23.347 0 42.325-18.978 42.325-42.325s-18.978-42.325-42.325-42.325-42.325 18.978-42.325 42.325 18.978 42.325 42.325 42.325zM703.829 626.722l-0.273 1.365c-3.55 17.203-20.89 49.698-60.757 49.698h-261.734c-39.868 0-57.207-32.495-60.757-49.698v-0.683s-35.908-257.911-35.908-257.911h40.96l34.679 250.812c0.683 2.867 5.052 16.93 20.89 16.93h261.734c15.019 0 19.661-12.425 21.026-17.067l34.679-250.675h40.96l-35.635 257.229zM594.466 401.306l38.366-391.168h40.687l-38.229 391.168h-40.823zM544.358 428.203l-12.971 166.161h-40.823l-10.923-166.161 32.495-25.395 32.222 25.395z" />
<glyph unicode="&#xe901;" glyph-name="ahorro" d="M284.945 250.3c5.734 20.89-4.915 42.462-24.576 51.2-89.566 39.595-141.585 127.932-132.028 223.232 5.052 50.654 28.262 98.441 65.399 134.349 37.137 36.045 85.47 57.89 136.397 61.577 43.281 3.14 86.016-6.417 126.566-29.355 18.705-10.513 42.189-5.734 55.433 11.196l0.41 0.41c-57.481 43.691-120.832 62.805-185.276 58.163-60.348-4.369-117.692-30.31-161.655-72.909s-71.407-99.26-77.551-159.471c-6.281-62.396 9.967-124.791 45.466-175.582 34.679-49.562 85.879-85.606 151.415-103.219v0.273zM936.073 528.828c-6.007 60.211-33.587 116.736-77.551 159.471-43.964 42.598-101.308 68.54-161.655 72.909-64.444 4.642-127.795-14.473-184.866-58.436l0.273-0.41c13.107-16.93 36.727-21.709 55.433-11.059 40.277 23.074 83.012 32.631 126.157 29.491 50.79-3.686 99.26-25.532 136.397-61.577s60.348-83.695 65.399-134.349c9.557-95.71-43.008-184.457-133.666-224.051-19.115-8.329-29.355-29.355-23.757-49.562l0.41-1.502c65.946 18.022 117.009 54.067 151.825 103.629 35.635 50.79 51.746 113.186 45.466 175.582zM713.66 197.461l7.509-22.665h-418.475l7.919 24.030c7.1 21.299-4.369 44.373-25.532 51.746l-39.458-116.326h532.48l-39.185 114.961c-21.163-7.373-32.631-30.447-25.395-51.746zM641.024 399.804c22.665 3.413 37.683 27.58 33.86 54.204-3.959 26.624-25.395 45.466-48.060 42.052s-37.683-27.58-33.86-54.204c3.959-26.624 25.395-45.466 48.060-42.052zM406.596 496.196c-22.665 3.413-44.1-15.565-48.060-42.052-3.959-26.624 11.196-50.927 33.86-54.204 22.665-3.413 44.1 15.565 48.060 42.052s-11.196 50.927-33.86 54.204zM511.59 455.236c-0.273 27.307-7.509 53.658-21.436 75.913-18.705 30.037-47.104 49.289-79.599 54.067-32.631 4.779-65.263-5.325-91.887-28.672-25.668-22.528-42.871-54.75-48.196-90.931-5.325-36.045 1.638-71.953 19.797-101.035 18.705-30.037 47.104-49.289 79.599-54.067 5.325-0.819 10.65-1.229 15.838-1.229 27.17 0 53.794 10.377 76.049 29.901 5.052 4.506 9.694 9.421 14.199 14.609l36.181-36.181 36.181 36.181c4.369-5.188 9.011-10.103 14.199-14.609 22.391-19.524 48.879-29.901 76.049-29.901 5.325 0 10.513 0.41 15.838 1.229 32.631 4.779 60.894 24.030 79.599 54.067 18.159 29.082 25.122 64.853 19.797 101.035-5.325 36.045-22.391 68.403-48.196 90.931-26.624 23.347-59.255 33.587-91.887 28.672-32.631-4.779-60.894-24.030-79.599-54.067-13.926-22.255-21.163-48.606-21.436-75.913l-0.41 0.41-0.41-0.41zM434.995 369.766c-17.613-15.428-38.639-22.118-59.255-19.115s-38.775 15.701-51.2 35.499c-12.971 20.89-18.022 46.967-14.063 73.591s16.247 50.108 34.816 66.355c14.746 12.971 32.085 19.797 49.562 19.797 3.277 0 6.554-0.273 9.694-0.683 20.617-3.004 38.775-15.701 51.2-35.499 12.971-20.89 18.022-46.967 14.063-73.591s-16.247-50.108-34.816-66.355zM568.252 509.713c12.288 19.797 30.583 32.358 51.2 35.499 3.277 0.546 6.554 0.683 9.694 0.683 17.476 0 34.679-6.827 49.562-19.797 18.569-16.247 30.857-39.731 34.816-66.355s-1.092-52.702-14.063-73.591c-12.425-19.797-30.583-32.358-51.2-35.499-20.617-3.004-41.643 3.686-59.255 19.115-18.569 16.247-30.857 39.731-34.816 66.355s1.092 52.702 14.063 73.591z" />
<glyph unicode="&#xe902;" glyph-name="alto" d="M861.116 645.018l-38.229 38.229-70.588-70.588v90.522h-19.524c-25.805 0-45.602-6.69-60.621-16.384v106.223l-14.746 3.686c-4.915 1.229-43.008 10.103-74.274-3.823v117.146l-18.705 0.819c-1.911 0-48.879 1.502-84.924-33.041-12.698-12.151-22.255-27.034-28.945-44.646-9.148-2.185-29.218-7.782-49.562-17.613-50.381-24.439-61.030-55.023-61.030-76.459v-261.598c-16.657 20.617-35.908 34.133-57.344 40.414-48.606 14.199-88.883-15.019-90.658-16.247l-10.103-7.373 2.594-12.288c6.144-29.628 60.894-290.953 86.972-340.514 0.956-1.911 2.185-3.959 3.413-6.007l-112.094-112.094 38.229-38.229 104.994 104.994c39.868-49.835 102.81-104.994 169.574-104.994h86.835c16.521 0 36.318 10.786 59.119 32.085 19.934 18.705 40.414 43.691 59.255 72.363 45.193 68.813 71.134 143.36 71.134 204.663v241.801l108.817 108.817zM713.25 662.221v-88.61l-41.097-41.097v93.389c1.775 6.69 9.967 29.355 41.097 36.318zM225.826 475.989c10.513 4.779 27.853 9.967 46.421 4.369 27.034-8.192 51.063-37.683 69.222-85.606l18.295 6.963h19.524v337.374c0 23.757 34.27 41.097 61.030 50.381v-303.514h39.049v282.624c0 36.045 9.148 63.215 27.17 80.691 12.151 11.878 26.624 17.476 37.956 20.070v-383.522h39.049v241.391c0 18.569 7.509 24.439 9.967 26.487 9.967 7.782 27.034 8.465 40.004 7.509v-267.605l-329.182-329.182c-19.797 45.466-60.348 227.191-78.234 311.569zM713.25 294.4c0-53.794-23.62-120.695-64.717-183.228-43.008-65.536-78.507-86.835-85.743-86.835h-86.835c-38.639 0-76.459 26.897-101.308 49.562-15.701 14.199-29.355 29.628-40.55 44.1l379.29 379.29v-202.889z" />
<glyph unicode="&#xe903;" glyph-name="aqui" d="M164.932 504.934h-124.928v-114.005h124.928v-102.673l148.958 159.744-148.958 159.744v-102.81zM943.445 794.931v-694.545c22.391 0 40.55 18.159 40.55 40.55v613.444c0 22.391-18.159 40.55-40.55 40.55zM613.308 177.664c19.934 9.967 28.126 34.133 18.295 54.067 22.118 0.41 39.868 18.295 39.868 40.414v523.059h272.794c0 22.391-18.159 40.55-40.55 40.55h-454.656c-22.391 0-40.55-18.159-40.55-40.55h0.546c-22.255-0.137-40.277-18.159-40.277-40.55v-616.175c0-21.709 17.067-39.322 38.502-40.277l0.41-0.956c1.911-20.617 18.978-36.864 40.141-36.864h454.929c22.391 0 40.55 18.159 40.55 40.55h-484.693l154.556 76.868zM631.057 795.204v-563.473l-221.73-110.182v673.655h221.73z" />
<glyph unicode="&#xe904;" glyph-name="balanza" d="M672.29 100.659h-146.5v646.758c106.496-8.329 194.014-85.197 218.317-186.505h-81.51c-22.391 0-40.55-18.159-40.55-40.55h268.561c0 22.391-18.159 40.55-40.55 40.55h-64.444c-25.259 123.699-130.799 218.453-259.686 227.055v49.152h-40.55v-49.152c-127.932-9.557-232.516-103.902-257.502-226.918h-54.067c-22.391 0-40.55-18.159-40.55-40.55h268.561c0 22.391-18.159 40.55-40.55 40.55h-92.023c24.166 100.625 110.455 177.22 216.132 186.505v-646.622h-146.5c-23.074 0-41.643-18.705-41.643-41.643h416.836c0 23.074-18.705 41.643-41.643 41.643zM435.951 474.078c6.144 22.801-10.923 45.193-34.543 45.193 0-73.865-60.075-133.939-133.803-133.939s-133.939 60.075-133.939 133.939c-23.62 0-40.687-22.391-34.543-45.193 19.934-74.274 87.927-129.161 168.482-129.161s148.548 54.886 168.482 129.161zM890.334 519.27c0-73.865-60.075-133.939-133.939-133.939s-133.939 60.075-133.939 133.939c-23.62 0-40.687-22.391-34.543-45.193 19.934-74.274 87.927-129.161 168.482-129.161s148.548 54.886 168.482 129.161c6.144 22.801-10.923 45.193-34.543 45.193z" />
<glyph unicode="&#xe905;" glyph-name="basurero" d="M334.37 647.885h44.373v-577.536h-44.373v577.536zM378.743 803.396h-44.373v22.255c0 24.576 19.934 44.373 44.373 44.373v0-66.628zM645.393 803.396h44.373s0 22.255 0 22.255c0 24.576-19.934 44.373-44.373 44.373v0-66.628zM645.393 647.885h44.373v-577.536h-44.373v577.536zM489.882 647.885h44.373v-577.536h-44.373v577.536zM778.65 25.975v0 666.283c24.576 0 44.373-19.934 44.373-44.373v-577.536c0-24.576-19.934-44.373-44.373-44.373zM245.35 25.975v0 666.283s0 0 0 0c-24.576 0-44.373-19.934-44.373-44.373v-577.536c0-24.576 19.934-44.373 44.373-44.373zM778.65 692.258h-533.163c0 24.576 19.934 44.373 44.373 44.373h444.279c24.576 0 44.373-19.934 44.373-44.373v0zM778.65 25.975h-533.163c0-24.576 19.934-44.373 44.373-44.373h444.279c24.576 0 44.373 19.934 44.373 44.373v0zM645.393 870.025h-266.513c0 24.576 19.934 44.373 44.373 44.373h177.63c24.576 0 44.373-19.934 44.373-44.373v0zM823.023 758.886h-621.909c0 24.576 19.934 44.373 44.373 44.373h533.026c24.576 0 44.373-19.934 44.373-44.373v0z" />
<glyph unicode="&#xe906;" glyph-name="bici" d="M582.042 754.244c-20.753 0-37.547-16.794-37.547-37.547h105.404v37.547h-67.857zM786.569 465.476c-9.148 0-18.022-0.956-26.761-2.458l-63.625 228.42c-5.598 19.934-26.214 31.676-46.285 26.078l49.425-177.493-288.222-48.742-27.443 49.835h39.049c0 20.753-16.794 37.547-37.547 37.547h-105.95c0-20.753 16.794-37.547 37.547-37.547h24.030l36.318-66.082-45.056-41.643c-26.624 19.388-59.255 30.993-94.754 30.993-88.883 0-161.246-72.363-161.246-161.246s72.363-161.246 161.246-161.246c75.093 0 138.172 51.61 156.058 121.242l99.806 4.369 217.634 231.151 12.834-45.875c-57.754-24.576-98.441-81.92-98.441-148.548 0-88.883 72.363-161.246 161.246-161.246s161.246 72.363 161.246 161.246-72.363 161.246-161.246 161.246zM655.633 494.558l-155.511-165.069-69.769 126.976 225.28 38.093zM237.431 179.302c-68.267 0-123.699 55.569-123.699 123.699s55.569 123.699 123.699 123.699c24.576 0 47.377-7.236 66.628-19.661l-68.949-63.761c-14.609-13.517-14.063-36.727 1.229-49.562l96.529 87.927c17.749-21.436 28.399-48.879 28.399-78.78 0-1.365-0.137-2.594-0.137-3.959l-124.382-5.461c0.956-20.753 18.432-36.727 39.185-35.772l77.961 3.413c-17.203-47.65-62.805-81.92-116.326-81.92zM360.448 407.040l36.045 32.905 74.684-135.851-72.636-3.277c0 0.819 0 1.502 0 2.185 0 39.595-14.473 75.913-38.229 103.902zM786.569 180.531c-68.267 0-123.699 55.433-123.699 123.699 0 49.425 29.218 92.023 71.134 111.821l34.543-123.699 36.181 10.103-34.679 124.382c5.461 0.683 10.923 1.229 16.521 1.229 68.267 0 123.699-55.433 123.699-123.699s-55.569-123.699-123.699-123.699z" />
<glyph unicode="&#xe907;" glyph-name="billete" d="M96.256 616.073v-336.282c0-22.391 18.159-40.55 40.55-40.55v417.382c-22.391 0-40.55-18.159-40.55-40.55zM177.766 198.144h668.467c22.391 0 40.55 18.159 40.55 40.55h-749.568c0-22.391 18.159-40.55 40.55-40.55zM887.33 656.623v-417.382c22.391 0 40.55 18.159 40.55 40.55v336.282c0 22.391-18.159 40.55-40.55 40.55zM846.234 697.856h-668.331c-22.391 0-40.55-18.159-40.55-40.55h749.431c0 22.391-18.159 40.55-40.55 40.55zM512 370.586c38.229 0 69.222 35.089 69.222 78.234s-31.13 78.234-69.222 78.234-69.222-35.089-69.222-78.234 31.13-78.234 69.222-78.234zM512 486.502c15.565 0 28.672-17.203 28.672-37.683s-13.107-37.683-28.672-37.683-28.672 17.34-28.672 37.683 13.107 37.683 28.672 37.683zM199.748 527.189h-20.207v-160.154h20.207c35.908 0 65.126-29.218 65.126-65.126v-20.207h494.387v20.207c0 35.908 29.218 65.126 65.126 65.126h20.207v160.154h-20.207c-35.908 0-65.126 29.218-65.126 65.126 0 0.273 0 0.546 0 0.956l0.956 21.163h-496.435s1.092-21.299 1.092-21.299c0-0.273 0-0.546 0-0.819 0-35.908-29.218-65.126-65.126-65.126zM303.787 573.884h416.563c7.509-42.871 41.097-76.868 83.695-85.197v-83.012c-42.052-8.192-75.23-41.37-83.422-83.422h-417.246c-8.192 42.052-41.37 75.23-83.422 83.422v83.012c42.598 8.329 76.186 42.325 83.695 85.197z" />
<glyph unicode="&#xe908;" glyph-name="bloqueo" d="M512 856.508c-225.28 0-408.508-183.228-408.508-408.508s183.228-408.508 408.508-408.508 408.508 183.228 408.508 408.508-183.228 408.508-408.508 408.508zM157.559 448c0 195.516 159.061 354.441 354.441 354.441 90.658 0 173.397-34.27 236.203-90.385l-500.258-500.258c-56.115 62.805-90.385 145.545-90.385 236.203zM512 93.559c-85.47 0-163.84 30.31-225.143 80.828l498.756 498.756c50.517-61.303 80.828-139.674 80.828-225.143 0-195.516-159.061-354.441-354.441-354.441z" />
<glyph unicode="&#xe909;" glyph-name="bolsadinero" d="M526.063 355.294c-9.694 2.867-17.203 5.461-22.801 7.646-5.461 2.321-9.967 5.188-13.38 8.875-3.413 3.55-5.052 8.192-5.052 13.653 0 7.782 3.413 13.517 10.103 17.34s15.701 5.734 26.897 5.734c9.284 0 18.842-1.229 28.809-3.55s18.842-5.598 26.897-9.557l-6.554 41.779c-11.332 5.052-25.122 8.192-41.233 9.148v29.628h-26.761v-30.447c-18.978-2.867-34.133-9.694-45.602-20.48s-17.203-24.576-17.203-41.506c0-12.151 2.867-22.118 8.602-30.037s12.698-13.79 20.89-17.886c8.192-4.096 17.749-7.782 28.672-10.923 10.24-3.004 18.159-5.598 23.62-7.782s9.83-5.052 13.107-8.738c3.277-3.55 4.779-8.192 4.779-13.653 0-15.019-11.332-22.391-34.133-22.391-11.059 0-22.665 1.638-34.953 4.779-12.288 3.277-22.801 7.1-31.539 11.605l6.827-43.145c7.236-2.594 15.428-4.779 24.713-6.554s18.569-2.594 27.853-2.867v-29.218h26.761v30.993c18.159 3.004 32.631 9.694 43.145 19.934 10.65 10.24 15.974 23.62 15.974 40.141s-5.052 28.672-15.019 37.001c-10.103 8.329-24.576 15.292-43.418 20.753zM744.107 466.295c-26.078 47.787-58.709 85.879-96.256 113.323 15.974 3.55 32.905 10.923 50.927 22.255 18.705 11.742 31.539 23.484 32.085 24.030l-25.395 27.716c-11.878-10.786-49.289-38.912-78.916-38.912h-8.465l59.529 102.127-1.911 1.229s1.365-0.137 2.048-0.137v37.547c-7.782 0.273-35.772 14.336-52.429 22.665-33.997 17.067-55.706 27.443-71.543 27.443v-5.871c0-17.749 10.377-33.724 26.351-41.233 9.83-4.506 20.207-9.83 28.262-13.79 12.561-6.281 23.211-11.605 32.631-15.838l-66.492-114.005h-127.249c-10.786 9.967-36.318 34.133-61.44 61.85-54.613 60.075-61.030 85.333-61.44 93.116 9.284-3.14 67.038-22.528 115.917-31.266 20.753-3.686 39.731 12.288 39.731 33.314-28.399 0-76.595 12.834-109.5 22.665-19.524 5.871-40.004-4.642-47.104-23.62-20.617 0-34.406-21.709-24.849-40.141 11.469-21.982 31.13-48.333 59.529-79.462 17.067-18.705 33.997-35.635 46.831-48.060-16.247-14.063-52.429-47.104-88.883-91.887-65.946-80.691-99.396-157.15-99.396-227.191 0-61.577 1.365-111.684 19.115-149.777 20.617-44.373 61.030-65.809 123.699-65.809h326.997l2.594 0.819c4.779 1.502 117.555 36.454 117.555 123.836 0 103.492-21.845 198.11-62.942 273.613zM681.028 105.574h-321.263c-61.303 0-80.145 23.62-89.702 44.1-14.473 31.13-15.565 79.053-15.565 133.939 0 133.53 149.094 268.151 178.313 293.274h143.633c52.975-21.026 100.762-66.628 134.622-128.751 38.229-69.905 58.436-158.379 58.436-255.59 0-53.931-74.001-82.193-88.474-87.108zM553.233 806.127c-8.602 18.842-30.993 27.034-49.835 18.432l-5.461-2.458c-18.842-8.602-27.034-30.993-18.432-49.835l73.591 33.86z" />
<glyph unicode="&#xe90a;" glyph-name="boton" d="M480.87 51.234h124.518c23.074 0 41.779 18.705 41.779 41.779h-208.077c0-23.074 18.705-41.779 41.779-41.779zM643.072 668.911c0 97.075-78.916 175.991-175.991 175.991s-175.991-78.916-175.991-175.991c0-71.68 43.145-135.441 108.407-162.475v-193.058l-35.499 13.926c-28.672 4.915-74.82-33.314-99.669-56.525l-12.698-11.742 131.755-157.969c13.244-17.34 37.956-21.026 55.569-8.329l-135.168 160.7c22.391 18.978 45.875 34.406 53.931 34.953l37.683-14.746c18.842-7.373 39.731 4.369 43.145 24.303v0 291.908c0 20.89 16.93 37.956 37.956 37.956h18.705v-134.758c0-21.709 17.613-39.185 39.185-39.185v0 52.565c65.126 27.034 108.407 91.614 108.407 162.475zM476.638 666.999c-42.598 0-77.141-34.543-77.141-77.141v-39.868c-42.189 23.893-69.222 68.949-69.222 118.921 0 75.366 61.303 136.806 136.806 136.806s136.806-61.303 136.806-136.806c0-49.425-27.034-94.891-69.222-118.921v117.009h-57.89zM711.339 404.036l-123.699 65.809c-19.115 10.24-42.871 3.004-53.111-16.247l158.242-84.241c26.078-13.926 41.643-41.37 40.141-70.724-8.192-21.436-59.255-163.84-85.47-205.892 18.432-11.605 42.871-4.506 52.429 15.155 31.539 65.399 68.813 173.943 70.861 179.541l0.956 2.594 0.273 2.731c3.823 45.875-19.934 89.566-60.621 111.275z" />
<glyph unicode="&#xe90b;" glyph-name="buscador" d="M874.633 122.368l-175.036 175.036c51.883 58.709 80.282 133.257 80.282 212.309 0 85.743-33.451 166.434-94.071 227.055s-141.312 94.071-227.055 94.071-166.434-33.451-227.055-94.071c-60.621-60.621-94.071-141.312-94.071-227.055s33.451-166.434 94.071-227.055c60.621-60.621 141.312-94.071 227.055-94.071s166.434 33.451 227.055 94.071c3.14 3.14 6.281 6.417 9.284 9.694-11.196-15.838-9.83-37.82 4.369-52.019l175.309-175.309c15.838 15.838 15.838 41.506 0 57.344zM458.615 229.001c-154.692 0-280.576 125.884-280.576 280.576s125.884 280.576 280.576 280.576 280.576-125.884 280.576-280.576-125.884-280.576-280.576-280.576z" />
<glyph unicode="&#xe90c;" glyph-name="cajero-fuera" d="M200.431 52.736c0-13.926 5.598-26.624 14.746-35.772s21.845-14.746 35.772-14.746v467.217h-50.517v-416.7zM302.285-49.118h419.43c27.853 0 50.517 22.665 50.517 50.517h-520.602c0-27.989 22.665-50.517 50.517-50.517zM773.052 2.082c27.853 0 50.517 22.665 50.517 50.517v416.836h-50.517v-467.49zM513.092 383.147c53.794 0 97.621 38.775 97.621 86.289h-50.517c0-19.388-21.572-35.772-47.104-35.772s-46.967 16.384-47.104 35.772h-50.517c0-47.65 43.827-86.289 97.621-86.289zM610.714 54.784v25.259c0 44.783 36.454 81.101 81.101 81.101h1.092l26.487-1.229v309.521h-50.517v-259.686c-53.521-9.421-95.983-51.2-106.359-104.448h-103.492c-10.24 52.429-51.61 93.798-104.038 104.038v260.096h-50.517v-308.292h25.259c44.783 0 81.101-36.454 81.101-81.101v-25.259h199.748zM928.154 520.772h-832.307c-27.853 0-50.517-22.665-50.517-50.517h933.478c0 27.853-22.665 50.517-50.517 50.517zM567.979 945.118h-105.813v-155.648h-148.412l199.202-201.523 199.475 201.523h-144.452v155.648z" />
<glyph unicode="&#xe90d;" glyph-name="cajero" d="M178.176 718.336c-22.391 0-40.55-18.159-40.55-40.55v-459.708c0-22.391 18.159-40.55 40.55-40.55v0 540.809zM845.824 718.336v-540.672c22.391 0 40.55 18.159 40.55 40.55v459.571c0 22.391-18.159 40.55-40.55 40.55zM243.029 431.070h288.085c12.151 0 21.982 9.83 21.982 21.982v209.033c0 12.151-9.83 21.982-21.982 21.982h-288.085c-12.151 0-21.982-9.83-21.982-21.982v-209.033c0-12.151 9.83-21.982 21.982-21.982zM261.598 643.652h250.948v-172.032h-250.948v172.032zM678.571 638.464h123.426v-40.55h-123.426v40.55zM678.571 555.042h123.426v-40.55h-123.426v40.55zM678.571 262.861h123.426v-40.55h-123.426v40.55zM734.959 438.716c-37.547 0-67.994-30.447-67.994-67.994s30.447-67.994 67.994-67.994 67.994 30.447 67.994 67.994-30.447 67.994-67.994 67.994zM734.959 343.279c-15.155 0-27.443 12.288-27.443 27.443s12.288 27.443 27.443 27.443 27.443-12.288 27.443-27.443-12.288-27.443-27.443-27.443zM636.382 718.336h209.442c0 22.391-18.159 40.55-40.55 40.55h-586.547c-22.391 0-40.55-18.159-40.55-40.55h417.792v-540.672h-417.792c0-22.391 18.159-40.55 40.55-40.55h586.684c22.391 0 40.55 18.159 40.55 40.55h-209.442v540.672zM221.047 367.172v-103.219h80.145c11.742-36.318 45.739-62.532 85.879-62.532s74.138 26.351 85.879 62.532h80.282v103.219h-332.049zM512.546 304.503h-75.913v-12.834c0-27.443-22.255-49.698-49.698-49.698s-49.015 21.572-49.698 48.469v14.199h-75.776v22.118h250.948v-22.118z" />
<glyph unicode="&#xe90e;" glyph-name="cajerodinero" d="M262.144 136.158c0-11.196 4.506-21.299 11.878-28.672s17.476-11.878 28.672-11.878v374.647h-40.55v-334.097zM343.791 54.511h336.282c22.391 0 40.55 18.159 40.55 40.55h-417.382c0-22.391 18.159-40.55 40.55-40.55zM721.306 95.471c22.391 0 40.55 18.159 40.55 40.55v334.234h-40.55v-374.784zM512.819 401.033c43.145 0 78.234 30.993 78.234 69.222h-40.55c0-15.565-17.34-28.672-37.683-28.672s-37.683 13.107-37.683 28.672h-40.55c0-38.229 35.089-69.222 78.234-69.222zM591.189 137.796v20.207c0 35.908 29.218 65.126 65.126 65.126h0.956l21.163-0.956v248.218h-40.55v-208.213c-42.871-7.509-76.868-41.097-85.197-83.695h-83.012c-8.192 42.052-41.37 75.23-83.422 83.422v208.623h-40.55v-247.125h20.207c35.908 0 65.126-29.218 65.126-65.126v-20.207h160.154zM845.687 511.351h-667.375c-22.391 0-40.55-18.159-40.55-40.55h748.476c0 22.391-18.159 40.55-40.55 40.55zM468.855 555.315h84.787v124.655l119.057 0.137-159.744 161.382-159.881-161.519h115.78v-124.655z" />
<glyph unicode="&#xe90f;" glyph-name="calculadora-2" d="M158.652 783.872v-669.969c0-22.391 18.159-40.55 40.55-40.55v751.070c-22.391 0-40.55-18.159-40.55-40.55zM824.798 823.33v-749.978c22.391 0 40.55 18.159 40.55 40.55v668.877c0 22.391-18.159 40.55-40.55 40.55zM783.292 864.973h-542.447c-22.391 0-40.55-18.159-40.55-40.55h623.548c0 22.391-18.159 40.55-40.55 40.55zM240.845 31.027h542.447c22.391 0 40.55 18.159 40.55 40.55h-623.548c0-22.391 18.159-40.55 40.55-40.55zM241.391 448.273h83.422v-83.422h-83.422v83.422zM366.182 448.273h83.422v-83.422h-83.422v83.422zM490.837 448.273h83.422v-83.422h-83.422v83.422zM241.391 323.072h83.422v-83.422h-83.422v83.422zM366.182 323.072h83.422v-83.422h-83.422v83.422zM490.837 323.072h83.422v-83.422h-83.422v83.422zM241.391 197.871h83.422v-83.422h-83.422v83.422zM366.182 197.871h83.422v-83.422h-83.422v83.422zM490.837 197.871h83.422v-83.422h-83.422v83.422zM615.629 448.273h166.98v-83.422h-166.98v83.422zM241.527 490.598h540.535v290.953h-540.535v-290.953zM282.078 741.001h459.571v-209.852h-459.571v209.852zM616.175 323.072h166.571v-208.623h-166.571v208.623z" />
<glyph unicode="&#xe910;" glyph-name="calculadora" d="M158.652 802.85v-709.564c0-22.391 18.159-40.55 40.55-40.55v790.665c-22.391 0-40.55-18.159-40.55-40.55zM824.798 719.565v-542.993c22.391 0 40.55 18.159 40.55 40.55v462.029c0 22.391-18.159 40.55-40.55 40.55zM740.42 719.838h84.105c0 22.391-18.159 40.55-40.55 40.55h-43.554v42.462c0 22.118-17.749 40.004-39.731 40.414 0 22.391-18.159 40.414-40.55 40.414h-419.977c-22.391 0-40.55-18.159-40.55-40.55h500.258v-790.391h-500.668c0-22.391 18.159-40.55 40.55-40.55h419.567c22.391 0 40.55 18.159 40.55 40.414v-0.273c22.391 0 40.55 18.159 40.55 40.55v42.598h43.964c22.391 0 40.55 18.159 40.55 40.55h-84.514v543.812zM283.443 524.595h332.049v235.793h-332.049v-235.793zM323.994 719.838h250.948v-154.829h-250.948v154.829zM283.034 343.552h83.285v-83.422h-83.285v83.422zM283.034 218.351h83.285v-83.422h-83.285v83.422zM407.962 343.552h83.285v-83.422h-83.285v83.422zM407.962 218.351h83.285v-83.422h-83.285v83.422zM532.753 343.552h83.285v-83.422h-83.285v83.422zM532.753 218.351h83.285v-83.422h-83.285v83.422zM283.034 468.89h83.285v-83.422h-83.285v83.422zM407.962 468.89h83.285v-83.422h-83.285v83.422zM532.753 468.89h83.285v-83.422h-83.285v83.422z" />
<glyph unicode="&#xe911;" glyph-name="calendario" d="M123.699 170.564h785.749v447.283h-785.749v-447.283zM171.349 324.71h136.806v-106.496h-136.806v106.496zM861.798 471.893v-99.533h-139.127v99.533h139.127zM675.021 372.361h-135.851v99.533h135.851v-99.533zM539.17 324.71h135.851v-106.496h-135.851v106.496zM491.52 218.214h-135.851v106.496h135.851v-106.496zM491.52 372.361h-135.851v99.533h135.851v-99.533zM308.019 372.361h-136.806v99.533h136.806v-99.533zM722.534 218.214v106.496h139.127v-106.496h-139.127zM861.662 570.197v-50.517h-690.313v50.517h690.449zM145.408 721.749v-54.204h47.65v54.204h123.836v-54.204h47.65v54.204h123.699v-54.204h47.65v54.204h123.699v-54.204h47.65v54.204h147.729v-55.433h47.65v55.433h54.75c0 23.347-18.978 42.325-42.325 42.325h-12.288v49.289h-47.65v-49.289h-147.729v50.654h-47.65v-50.654h-123.699v50.654h-47.65v-50.654h-123.699v50.654h-47.65v-50.654h-123.836v50.654h-47.65v-50.654h-121.242v-598.289c0-23.347 18.978-42.325 42.325-42.325v598.289h78.78zM957.372 721.749v-598.289h-890.743c0-23.347 18.978-42.325 42.325-42.325h890.607v598.289c0 23.347-18.978 42.325-42.325 42.325z" />
<glyph unicode="&#xe912;" glyph-name="campana" d="M205.756 497.289c13.79 3.55 22.528 16.794 20.617 30.857-6.007 44.237 2.731 88.883 25.532 128.205 26.897 46.421 70.042 79.735 121.651 93.798 51.337 14.063 105.54 6.827 152.644-20.343 41.233-23.893 73.318-61.44 90.385-105.404 4.779-12.288 18.159-18.842 30.857-15.565l15.428 4.096c-16.657 63.625-59.119 118.921-116.326 152.098-22.665 13.107-46.694 22.118-71.27 27.443l1.229 0.41c-18.432 61.167-83.285 95.983-144.589 77.414-61.167-18.432-95.983-83.285-77.551-144.452-14.336-14.473-27.034-30.857-37.547-48.879-32.222-55.706-41.097-120.695-24.849-182.955l13.79 3.55zM343.654 831.249c33.86 10.24 69.359-4.642 86.699-33.724-22.528 0.41-45.193-2.185-67.311-8.329-26.351-7.236-50.79-18.842-72.772-33.86-1.638 33.724 19.661 65.673 53.521 75.776zM857.020 287.573c-40.414 46.967-92.843 134.758-143.087 297.916-6.554 21.436-28.945 33.724-50.517 28.126 36.454-120.695 92.979-284.262 180.224-371.098l12.288 12.425c8.875 8.875 9.284 23.211 1.092 32.768zM843.366 242.517l-626.825-161.246 2.458-9.284c4.233-16.521 21.026-26.487 37.547-22.255l567.979 146.091c15.974 4.096 25.532 20.343 21.436 36.318l-2.594 10.377zM191.966 493.739c-21.572-5.598-34.816-27.307-29.901-49.015 36.727-162.065 31.676-266.24 17.203-329.591-3.004-12.971 4.642-26.078 17.476-30.037l15.155-4.642c38.775 125.201 9.421 295.322-19.934 413.423zM669.559 154.863c5.052-19.251 2.321-39.322-7.782-56.525s-26.214-29.491-45.466-34.543c-39.731-10.377-80.555 13.38-90.931 53.111l-39.185-10.24c13.517-51.61 60.211-85.879 111.275-85.879 9.694 0 19.388 1.229 29.218 3.823 29.764 7.782 54.613 26.761 70.178 53.248 15.428 26.487 19.661 57.481 11.878 87.245l-39.185-10.24z" />
<glyph unicode="&#xe913;" glyph-name="candado" d="M534.255 345.463v28.262c12.015 6.963 20.070 19.934 20.070 34.679 0 22.255-18.159 40.414-40.414 40.414s-40.414-18.159-40.414-40.414c0-14.882 8.192-27.716 20.070-34.679v-28.262h40.55zM514.185 679.287c-45.602 0-82.739-37.137-82.739-82.739v-84.241h-83.285v-167.526c0-22.391 18.159-40.55 40.55-40.55v167.526h250.266c0 22.391-18.159 40.55-40.55 40.55h-1.638v84.241c0 45.602-37.137 82.739-82.739 82.739zM471.996 512.307v84.241c0 23.211 18.978 42.189 42.189 42.189s42.189-18.978 42.189-42.189v-84.241h-84.378zM429.807 263.134h250.266v167.526c0 22.391-18.159 40.55-40.55 40.55v-167.526h-250.266c0-22.391 18.159-40.55 40.55-40.55zM897.024 676.557c-1.092 22.528-21.026 39.322-43.418 36.727 0.137-1.502 16.93-154.419-18.022-314.846-20.207-92.843-53.658-170.121-99.26-229.239-56.252-73.045-131.618-119.057-224.324-137.079 4.369-22.391 27.034-36.181 48.879-29.764 84.241 24.576 154.010 72.499 207.804 142.541 49.289 64.171 85.197 146.91 106.633 245.897 25.395 117.146 24.576 228.011 21.572 285.764zM515.823 852.275l337.783-138.991c7.782 21.299-2.594 44.919-23.62 53.385l-314.027 128.751-321.536-129.297c-21.026-8.602-31.403-32.085-23.757-53.385l345.156 139.537zM287.676 169.062c-45.602 59.255-79.053 136.397-99.26 229.239-34.953 160.427-18.159 313.344-18.022 314.846-22.391 2.594-42.189-14.199-43.418-36.727-3.004-57.754-3.823-168.619 21.572-285.764 21.436-98.987 57.344-181.726 106.633-245.897 53.931-70.178 123.699-117.965 207.804-142.541 21.845-6.417 44.51 7.509 48.879 29.764-92.57 18.022-168.073 64.034-224.324 137.079z" />
<glyph unicode="&#xe914;" glyph-name="carpetas" d="M653.722 65.024h157.286c23.211 0 42.052 18.842 42.052 42.052h-199.202v-42.052zM852.924 788.924v-681.847c23.211 0 42.052 18.842 42.052 42.052v597.743c0 23.211-18.842 42.052-42.052 42.052zM810.871 830.976h-157.286v-42.052h199.202c0 23.211-18.842 42.052-42.052 42.052zM714.342 354.611c23.211 0 42.052 18.842 42.052 42.052h-102.673v295.731h102.673c0 23.211-18.842 42.052-42.052 42.052h-60.757v54.477h-42.052v-681.847h42.052v247.535h60.757zM798.447 438.716v211.627c0 23.211-18.842 42.052-42.052 42.052v-295.731c23.211 0 42.052 18.842 42.052 42.052zM753.254 300.134c-38.229 0-69.222-31.13-69.222-69.222s31.13-69.222 69.222-69.222 69.222 31.13 69.222 69.222-31.13 69.222-69.222 69.222zM753.254 203.605c-15.019 0-27.307 12.288-27.307 27.307s12.288 27.307 27.307 27.307 27.307-12.288 27.307-27.307-12.288-27.307-27.307-27.307zM370.278 830.976h-157.286c-23.211 0-42.052-18.842-42.052-42.052h199.202v42.052zM213.129 65.024h157.286v42.052h-199.202c0-23.211 18.842-42.052 42.052-42.052zM231.834 354.611c23.211 0 42.052 18.842 42.052 42.052h-102.673v295.731h102.673c0 23.211-18.842 42.052-42.052 42.052h-60.757v54.477c-23.211 0-42.052-18.842-42.052-42.052v-597.743c0-23.211 18.842-42.052 42.052-42.052v247.535h60.757zM315.802 438.716v211.627c0 23.211-18.842 42.052-42.052 42.052v-295.731c23.211 0 42.052 18.842 42.052 42.052zM270.746 300.134c-38.229 0-69.222-31.13-69.222-69.222s31.13-69.222 69.222-69.222 69.222 31.13 69.222 69.222-31.13 69.222-69.222 69.222zM270.746 203.605c-15.019 0-27.307 12.288-27.307 27.307s12.288 27.307 27.307 27.307 27.307-12.288 27.307-27.307-12.288-27.307-27.307-27.307zM412.331 107.076h199.202v-42.052h-199.202v42.052zM412.331 830.976h199.202v-42.052h-199.202v42.052zM473.088 354.611c23.211 0 42.052 18.842 42.052 42.052h-102.673v295.731h102.673c0 23.211-18.842 42.052-42.052 42.052h-60.621v54.477h-42.052v-681.847h42.052v247.535h60.621zM557.056 438.716v211.627c0 23.211-18.842 42.052-42.052 42.052v-295.731c23.211 0 42.052 18.842 42.052 42.052zM512 300.134c-38.229 0-69.222-31.13-69.222-69.222s31.13-69.222 69.222-69.222 69.222 31.13 69.222 69.222-31.13 69.222-69.222 69.222zM512 203.605c-15.019 0-27.307 12.288-27.307 27.307s12.288 27.307 27.307 27.307 27.307-12.288 27.307-27.307-12.288-27.307-27.307-27.307z" />
<glyph unicode="&#xe915;" glyph-name="carrito-de-compras" d="M440.73 682.837h-133.393c-21.163 0-38.366-17.067-38.366-38.229l-27.58 96.802c-5.734 20.48-26.897 32.358-47.377 26.624l161.246-567.159c-11.196-12.151-18.295-28.262-18.295-46.012 0-37.547 30.583-68.13 68.13-68.13s68.13 30.583 68.13 68.13c0 10.786-2.731 20.753-7.1 29.764h273.476c-4.506-9.011-7.1-19.115-7.1-29.764 0-37.547 30.583-68.13 68.13-68.13s68.13 30.583 68.13 68.13-30.583 68.13-68.13 68.13v0s-411.511 0-411.511 0l-120.013 421.478h210.125c0 21.163-17.203 38.366-38.366 38.366zM405.231 124.962c-16.384 0-29.764 13.38-29.764 29.764s13.38 29.764 29.764 29.764 29.764-13.38 29.764-29.764-13.38-29.764-29.764-29.764zM830.259 154.726c0-16.384-13.38-29.764-29.764-29.764s-29.764 13.38-29.764 29.764 13.38 29.764 29.764 29.764 29.764-13.38 29.764-29.764zM663.006 682.837h-145.408c-21.163 0-38.366-17.203-38.366-38.366h222.276c0 21.163-17.203 38.366-38.366 38.366zM899.618 644.471c0 21.163-17.203 38.366-38.366 38.366h-121.378c-21.163 0-38.366-17.203-38.366-38.366h198.246zM414.106 308.463c-21.163 0-38.366-17.203-38.366-38.366h430.080c0 21.163-17.203 38.366-38.366 38.366h-83.695l25.122 148.821h143.77c0 21.163-17.203 38.366-38.366 38.366h-98.85l17.613 104.585c3.55 20.89-10.513 40.687-31.539 44.237l-25.122-148.821h-172.169l-25.122 148.821c-20.89-3.55-34.953-23.347-31.539-44.237l17.613-104.585h-104.175c-21.163 0-38.366-17.203-38.366-38.366h148.958l25.122-148.821h-82.603zM510.498 457.284h159.198l-25.122-148.821h-109.090l-25.122 148.821zM852.241 298.086l74.957 299.827c5.188 20.617-7.373 41.37-27.989 46.558l-93.525-374.374c20.617-5.188 41.37 7.373 46.558 27.989zM152.235 809.267h-56.661v-41.779h98.304c0 23.074-18.705 41.779-41.779 41.779z" />
<glyph unicode="&#xe916;" glyph-name="carro-2" d="M177.63 462.882l144.862 57.207c20.343 9.148 29.764 32.768 21.299 53.385h252.587c0 22.391-18.159 40.55-40.414 41.779h-170.53c-22.938 0-41.643-18.569-41.779-41.506 0 0 0 0 0 0.137l-219.546-88.61c8.738-20.753 32.495-30.72 53.521-22.391zM912.043 446.771c4.779 21.709-9.284 43.145-31.13 47.65l-116.326 23.347-112.367 67.721c-18.432 12.425-43.554 7.236-55.569-11.469l152.098-94.208 163.294-32.905zM911.906 446.771l-21.163-82.057-52.292 0.273c-1.092 44.237-37.41 80.009-81.92 80.009s-80.828-35.772-81.92-80.009h-303.514c-1.092 44.373-37.41 80.009-81.92 80.009s-80.828-35.635-81.92-80.009h-51.61l-31.539 34.679v85.743c-23.757 0-43.008-19.251-43.008-43.008v-58.436l56.934-60.757h79.462c14.063-25.259 40.96-42.325 71.68-42.325s57.754 17.067 71.817 42.325h323.994c14.063-25.259 40.96-42.325 71.817-42.325s58.027 17.34 72.090 42.871l94.481-0.546 18.842 75.366c5.325 21.709-8.192 43.418-29.901 48.333zM289.041 321.297c-22.938 0-41.506 18.569-41.506 41.506s18.569 41.506 41.506 41.506 41.506-18.569 41.506-41.506-18.569-41.506-41.506-41.506zM756.531 321.297c-22.938 0-41.506 18.569-41.506 41.506s18.569 41.506 41.506 41.506 41.506-18.569 41.506-41.506-18.569-41.506-41.506-41.506z" />
<glyph unicode="&#xe917;" glyph-name="carrogarita" d="M960.375 635.187v123.29l-46.967 85.47h-485.922v-40.55h461.892l30.447-55.296v-112.777h-86.016v-582.997h127.113v582.861h-0.546zM920.371 92.604h-46.012v502.033h45.466v-73.591h0.546v-428.442zM604.16 301.909c-22.938 0-41.506-18.569-41.506-41.506s18.569-41.506 41.506-41.506 41.506 18.569 41.506 41.506-18.569 41.506-41.506 41.506zM229.376 218.761c22.938 0 41.506 18.569 41.506 41.506s-18.569 41.506-41.506 41.506-41.506-18.569-41.506-41.506 18.569-41.506 41.506-41.506zM721.442 405.948c-15.428 0-28.809-8.602-35.908-21.163h-21.709v110.319c0 19.934-16.111 36.045-36.045 36.045v-146.227h-422.025s0 146.227 0 146.227c-19.934 0-36.045-16.111-36.045-36.045v-110.319h-29.218c-7.1 12.561-20.48 21.163-35.908 21.163-22.938 0-41.37-18.569-41.37-41.37 0-21.299 16.111-38.639 36.864-40.96l-16.93-65.536 50.517-101.444h34.27v-97.894c0-2.321 1.911-4.233 4.233-4.233h114.415c2.321 0 4.233 1.911 4.233 4.233v97.894h251.904v-97.894c0-2.321 1.911-4.233 4.233-4.233h114.415c2.321 0 4.233 1.911 4.233 4.233v97.894h37.683l25.805 103.219-12.834 63.898c1.638-0.273 3.413-0.546 5.052-0.546 22.938 0 41.37 18.569 41.37 41.37s-18.569 41.37-41.37 41.37zM313.207 197.052h-154.556l-32.631 65.536 21.026 81.783h166.025s0-147.319 0-147.319zM396.493 197.052h-42.735v147.319h42.735s0-147.319 0-147.319zM479.778 197.052h-42.871v147.319h42.871v-147.319zM671.607 197.052h-151.279v147.319h150.46s16.657-83.558 16.657-83.558l-15.974-63.761zM627.78 531.149c7.509 18.569-3.55 39.458-23.074 43.554-33.997 7.1-93.525 15.428-187.87 15.428s-153.873-8.329-187.733-15.428c-19.661-4.096-30.72-24.986-23.074-43.554 0.683 0.273 57.207 22.938 210.944 22.938s210.398-22.801 210.944-22.938z" />
<glyph unicode="&#xe918;" glyph-name="casa" d="M802.953 507.119v297.506h-83.831c-22.391 0-40.55-18.159-40.55-40.55h83.831v-202.206l-84.514 114.142v87.518c-20.070 0-36.591-14.609-39.868-33.724l-71.407 96.529c-12.971 17.613-38.229 20.207-54.613 5.598l333.687-450.833v-286.037h-209.306v168.755c0 22.391-18.159 40.55-40.55 40.55v-209.306h-167.799v209.306c-22.391 0-40.55-18.159-40.55-40.55v-168.755h-209.306v286.037l333.961 450.833c-16.384 14.473-41.779 11.742-54.75-5.871l-319.625-431.582v-339.968h748.476v339.968l-83.285 112.503zM554.735 345.463h-85.47c-22.391 0-40.55-18.159-40.55-40.55h166.571c0 22.391-18.159 40.55-40.55 40.55zM512 429.705c34.543 0 62.532 27.989 62.532 62.532s-27.989 62.532-62.532 62.532-62.532-27.989-62.532-62.532 27.989-62.532 62.532-62.532z" />
<glyph unicode="&#xe919;" glyph-name="cero" d="M492.612 891.597c-229.786 0-416.7-186.914-416.7-416.7s186.914-416.7 416.7-416.7c51.337 0 100.489 9.421 145.954 26.487-5.871 4.779-10.786 10.513-15.292 16.93-6.417 9.421-11.605 19.524-18.295 28.672-35.362-11.605-73.182-17.886-112.367-17.886-199.885 0-362.496 162.611-362.496 362.496s162.611 362.496 362.496 362.496 362.496-162.611 362.496-362.496c0-37.41-5.734-73.591-16.384-107.725-2.594-8.465-5.598-16.93-8.875-25.122 5.325-3.686 11.196-6.69 16.93-9.694 9.148-4.642 17.749-10.103 26.487-15.428 1.229-0.819 2.594-1.502 3.823-2.321 1.092 2.594 2.185 5.188 3.277 7.919 18.569 47.241 28.809 98.577 28.809 152.235 0 229.786-186.914 416.7-416.7 416.7zM758.989 366.49c-95.437 0-172.988-77.551-172.988-172.988s77.551-172.988 172.988-172.988 172.988 77.551 172.988 172.988-77.551 172.988-172.988 172.988zM758.989 42.906c-83.012 0-150.46 67.584-150.46 150.46s67.584 150.46 150.46 150.46 150.46-67.584 150.46-150.46-67.584-150.46-150.46-150.46zM758.989 4.403c-104.311 0-189.099 84.787-189.099 189.099s84.787 189.099 189.099 189.099 189.099-84.787 189.099-189.099-84.787-189.099-189.099-189.099zM758.989 327.987c-74.138 0-134.349-60.348-134.349-134.349s60.348-134.349 134.349-134.349 134.349 60.348 134.349 134.349-60.348 134.349-134.349 134.349zM813.602 254.259l-136.67-121.378h27.716l136.806 121.378h-27.853zM777.421 163.055c0-16.521 13.517-30.037 30.037-30.037s30.037 13.517 30.037 30.037-13.517 30.037-30.037 30.037-30.037-13.517-30.037-30.037zM817.835 163.055c0-5.734-4.642-10.377-10.377-10.377s-10.377 4.642-10.377 10.377 4.642 10.377 10.377 10.377 10.377-4.642 10.377-10.377zM736.461 223.949c0 16.521-13.517 30.037-30.037 30.037s-30.037-13.517-30.037-30.037 13.517-30.037 30.037-30.037 30.037 13.517 30.037 30.037zM696.047 223.949c0 5.734 4.642 10.377 10.377 10.377s10.377-4.642 10.377-10.377-4.642-10.377-10.377-10.377-10.377 4.642-10.377 10.377zM329.182 522.411c0 128.478 70.315 200.977 163.021 200.977s163.567-72.636 163.567-200.977-70.315-200.977-163.567-200.977-163.021 72.636-163.021 200.977zM582.724 522.411c0 94.345-36.864 137.899-90.522 137.899s-89.839-43.554-89.839-137.899 36.864-137.899 89.839-137.899 90.522 43.554 90.522 137.899z" />
<glyph unicode="&#xe91a;" glyph-name="check-men" d="M67.447 747.145v-702.464c0-23.484 18.978-42.462 42.462-42.462v787.524c-23.484 0-42.462-18.978-42.462-42.462zM809.506 547.669v-545.451c23.484 0 42.462 13.244 42.462 29.491v486.605c0 16.247-18.978 29.491-42.462 29.491zM544.631 832.341h-405.504c-15.565 0-28.126-18.978-28.126-42.462h461.892c0 23.484-12.561 42.462-28.126 42.462zM546.679 439.125c0 47.923-38.912 86.835-86.835 86.835s-86.835-38.912-86.835-86.835 38.912-86.835 86.835-86.835 86.835 38.912 86.835 86.835zM415.471 439.125c0 24.439 19.934 44.373 44.373 44.373s44.373-19.934 44.373-44.373-19.934-44.373-44.373-44.373-44.373 19.934-44.373 44.373zM660.958 254.259l-0.273 1.365c-3.823 18.022-21.845 52.156-63.625 52.156h-274.432c-41.779 0-59.938-34.133-63.625-52.156v-0.683s-35.362-254.635-35.362-254.635h-112.503c0-23.484 18.978-42.462 42.462-42.462h612.489c23.484 0 42.462 18.978 42.462 42.462h-112.367l-35.226 253.952zM300.646 247.569c0.819 3.004 5.325 17.749 21.982 17.749h274.432c15.701 0 20.617-12.971 21.982-18.022l34.27-247.125h-386.799l34.27 247.262zM437.316 220.399l-11.469-148.275 34.133-26.761 33.724 26.761-13.653 148.275h-42.735zM893.065 874.667c-40.96 40.96-95.437 63.488-153.327 63.488s-112.367-22.528-153.327-63.488c-40.96-40.96-63.488-95.437-63.488-153.327s22.528-112.367 63.488-153.327c40.96-40.96 95.437-63.488 153.327-63.488s112.367 22.528 153.327 63.488c40.96 40.96 63.488 95.437 63.488 153.327s-22.528 112.367-63.488 153.327zM915.866 721.34c0-46.967-18.295-91.204-51.61-124.518s-77.551-51.61-124.518-51.61-91.341 18.295-124.518 51.61c-33.314 33.314-51.61 77.551-51.61 124.518s18.295 91.204 51.61 124.518c33.314 33.314 77.551 51.61 124.518 51.61s91.341-18.295 124.518-51.61c33.314-33.314 51.61-77.551 51.61-124.518zM828.757 783.326v0c-8.465 0-16.384-3.277-22.391-9.284l-99.669-100.352-21.436 43.008c-3.686 7.509-10.24 13.244-18.295 15.838s-16.521 1.911-24.166-1.775l-8.055-4.096 30.857-62.532c5.598-10.923 16.794-17.34 28.262-17.34 2.867 0 5.598 1.229 8.329 2.048 5.188-3.686 11.196-6.144 17.613-6.144v0c8.465 0 16.384 3.277 22.391 9.284l114.961 115.78-6.417 6.417c-6.007 5.871-13.926 9.148-22.255 9.148z" />
<glyph unicode="&#xe91b;" glyph-name="check" d="M247.398 183.398c70.724-70.724 164.659-109.636 264.602-109.636s193.877 38.912 264.602 109.636c70.724 70.724 109.636 164.659 109.636 264.602s-38.912 193.877-109.636 264.602c-70.724 70.724-164.659 109.636-264.602 109.636s-193.877-38.912-264.602-109.636c-70.724-70.724-109.636-164.659-109.636-264.602s38.912-193.877 109.636-264.602zM276.070 683.93c63.078 63.078 146.773 97.758 235.93 97.758s172.988-34.679 235.93-97.758c63.078-63.078 97.758-146.773 97.758-235.93s-34.679-172.988-97.758-235.93c-63.078-63.078-146.773-97.758-235.93-97.758s-172.988 34.679-235.93 97.758c-63.078 63.078-97.758 146.773-97.758 235.93s34.679 172.988 97.758 235.93zM332.868 472.166l45.466-99.396c9.557-20.207 33.724-28.945 53.931-19.388l-45.739 99.26c-9.284 20.343-33.451 29.082-53.658 19.524zM633.924 544.256l-201.523-190.874c15.292-16.247 40.96-16.93 57.207-1.638l201.523 190.874c-15.292 16.247-40.96 16.93-57.207 1.638z" />
<glyph unicode="&#xe91c;" glyph-name="checklist" d="M345.702 531.422v-166.98c22.391 0 40.55 18.159 40.55 40.55v85.879c0 22.391-18.159 40.55-40.55 40.55zM137.489 491.008v-85.879c0-22.391 18.159-40.55 40.55-40.55v166.98c-22.391 0-40.55-18.159-40.55-40.55zM219.136 323.755h85.879c22.391 0 40.55 18.159 40.55 40.55h-166.98c0-22.391 18.159-40.55 40.55-40.55zM304.606 572.382h-85.47c-22.391 0-40.55-18.159-40.55-40.55h166.571c0 22.391-18.159 40.55-40.55 40.55zM469.538 865.246h416.836v-41.643h-416.836v41.643zM469.538 781.824h416.836v-41.643h-416.836v41.643zM469.538 489.779h416.836v-41.643h-416.836v41.643zM469.538 406.221h416.836v-41.643h-416.836v41.643zM469.538 155.819h416.836v-41.643h-416.836v41.643zM469.538 72.397h416.836v-41.643h-416.836v41.643zM312.388 501.111s0 0 0 0c-4.915-1.092-9.011-3.959-11.742-8.055l-52.292-80.964-20.48 35.499c-2.458 4.369-6.417 7.373-11.332 8.602-4.779 1.229-9.83 0.546-14.063-1.911l-4.506-2.594 20.343-35.635c3.413-6.007 9.694-9.284 16.111-9.284 3.14 0 6.417 0.819 9.284 2.594l4.506 2.594 4.369-2.867c4.096-2.731 9.148-3.55 13.926-2.594 0 0 0 0 0 0 4.915 1.092 9.011 3.959 11.742 8.055l52.292 80.964-4.369 2.867c-4.096 2.731-9.148 3.55-13.926 2.594zM345.702 865.246v-166.98c22.391 0 40.55 18.159 40.55 40.55v85.879c0 22.391-18.159 40.55-40.55 40.55zM137.489 824.832v-85.879c0-22.391 18.159-40.55 40.55-40.55v166.98c-22.391 0-40.55-18.159-40.55-40.55zM219.136 657.579h85.879c22.391 0 40.55 18.159 40.55 40.55h-166.98c0-22.391 18.159-40.55 40.55-40.55zM304.606 906.206h-85.47c-22.391 0-40.55-18.159-40.55-40.55h166.571c0 22.391-18.159 40.55-40.55 40.55zM312.388 835.072s0 0 0 0c-4.915-1.092-9.011-3.959-11.742-8.055l-52.292-80.964-20.48 35.499c-2.458 4.369-6.417 7.373-11.332 8.602-4.779 1.229-9.83 0.546-14.063-1.911l-4.506-2.594 20.343-35.635c3.413-6.007 9.694-9.284 16.111-9.284 3.14 0 6.417 0.819 9.284 2.594l4.506 2.594 4.369-2.867c4.096-2.731 9.148-3.55 13.926-2.594 0 0 0 0 0 0 4.915 1.092 9.011 3.959 11.742 8.055l52.292 80.964-4.369 2.867c-4.096 2.731-9.148 3.55-13.926 2.594zM345.702 197.461v-166.98c22.391 0 40.55 18.159 40.55 40.55v85.879c0 22.391-18.159 40.55-40.55 40.55zM137.489 157.047v-85.879c0-22.391 18.159-40.55 40.55-40.55v166.98c-22.391 0-40.55-18.159-40.55-40.55zM219.136-10.206h85.879c22.391 0 40.55 18.159 40.55 40.55h-166.98c0-22.391 18.159-40.55 40.55-40.55zM345.020 197.871c0 22.391-18.159 40.55-40.55 40.55h-85.47c-22.391 0-40.55-18.159-40.55-40.55v0s166.571 0 166.571 0v0z" />
<glyph unicode="&#xe91d;" glyph-name="chek" d="M112.777 105.165h745.472c24.986 0 45.193 20.207 45.193 45.193h-835.857c0-24.986 20.207-45.193 45.193-45.193zM671.061 290.577h185.685v-92.979h-185.685v92.979zM1002.155 659.354c0 72.499-58.982 131.345-131.345 131.345-55.023 0-102.127-33.997-121.651-82.057h-636.382c-24.986 0-45.193-20.207-45.193-45.193h672.017c0-1.365-0.273-2.731-0.273-4.096 0-34.679 13.653-66.082 35.635-89.702h-707.925v93.116c-24.986 0-45.193-20.207-45.193-45.193v-421.478c0-24.986 20.207-45.193 45.193-45.193v325.769h836.813v-325.769c24.986 0 45.193 20.207 45.193 45.193v357.854c32.222 24.030 53.111 62.259 53.111 105.267zM870.81 575.249c-46.421 0-84.105 37.683-84.105 84.105s37.683 84.105 84.105 84.105 84.105-37.683 84.105-84.105-37.683-84.105-84.105-84.105zM918.050 696.218c-4.915 0-9.557-1.911-13.107-5.461l-58.436-58.846-12.561 25.259c-2.185 4.369-6.007 7.782-10.65 9.284-4.779 1.502-9.694 1.229-14.199-1.092l-4.642-2.321 18.159-36.727c3.277-6.417 9.83-10.103 16.521-10.103 1.638 0 3.277 0.683 4.915 1.229 3.004-2.185 6.554-3.55 10.377-3.55v0c4.915 0 9.557 1.911 13.107 5.461l67.447 67.857-3.823 3.823c-3.55 3.55-8.192 5.461-13.107 5.461v0z" />
<glyph unicode="&#xe91e;" glyph-name="cheque" d="M365.909 414.003c5.734 5.734 18.432 18.569 34.27 34.27l26.078 26.624c15.019 15.019 20.89 35.635 17.476 54.613h382.703s0 40.414 0 40.414h-400.452s0-8.329 0-8.329c-23.074 21.163-59.529 20.207-82.876-2.731l-18.569-16.247-61.030-55.979v212.173h607.71c0 19.934-16.111 36.045-36.045 36.045h-607.71v-136.26c-31.539-33.178-56.661-72.090-74.82-115.917-18.569-44.646-30.037-94.481-34.27-148.139-6.963-90.795 9.421-160.7 10.103-163.703l39.458 9.421s-15.838 67.584-9.011 152.235c3.959 49.152 14.473 94.618 31.403 135.031 10.103 24.166 22.528 46.694 37.137 67.311v-81.237l-9.284-8.465 27.443-29.901 105.95 97.075 18.842 16.521 0.956 0.956c8.192 8.192 20.753 8.875 27.989 1.638s6.554-19.797-1.638-27.989l-25.941-26.487c-21.709-21.436-37.683-37.683-37.82-37.82l-3.14-3.277-25.532-74.138h-0.819v-2.321l-21.299-61.85 38.366-13.244 14.199 41.233h75.093l-16.657-62.669-73.045-73.045 28.672-28.672 80.828 80.828 22.255 83.558h382.703c19.934 0 36.045 16.111 36.045 36.045h-523.742l18.022 52.292zM327.817 653.483h349.662v-40.55h-349.662v40.55zM576.717 487.049h249.993v-83.422h-249.993v83.422zM871.356 698.812v-337.101c19.934 0 36.045 16.111 36.045 36.045v265.011c0 19.934-16.111 36.045-36.045 36.045z" />
<glyph unicode="&#xe91f;" glyph-name="cheques-_1" d="M694.818 336.998c20.343-20.343 44.783-44.783 54.067-54.067 20.343-20.343 27.58-46.831 27.58-100.898 0-87.654-0.956-224.188-0.956-224.188h40.823s0.956 136.533 0.956 224.188c0 56.115-7.1 96.802-39.731 129.434-15.292 15.292-66.219 65.263-83.558 82.603zM694.955 336.998v-95.846zM552.277 378.778c-26.487 13.244-59.119 8.192-81.51-13.244-27.58-27.58-27.58-72.363 0-99.942l79.462-79.462c-0.956-6.144-2.048-14.336-2.048-23.484h-179.405v-0.956c0-22.391 18.295-40.823 40.823-40.823h61.167c2.048-30.583 10.24-67.311 35.635-107.998 24.439-38.775 24.439-49.971 24.439-54.067v-0.41c0-10.377 7.509-19.524 17.886-20.753 12.288-1.502 22.938 8.192 22.938 20.207 0 13.244-2.048 31.539-31.539 76.459-20.343 31.539-27.58 60.075-29.628 85.606h41.779c8.192-29.628 26.487-65.263 66.219-97.894 4.096-3.004 8.192-4.096 13.244-4.096 6.144 0 12.288 3.004 16.247 7.1 7.1 9.148 6.144 21.436-3.004 28.535-74.411 60.075-55.023 127.386-54.067 129.434l4.096 12.288-95.846 98.85c-12.151 12.151-12.288 30.447 0 42.735 11.878 12.015 31.403 11.605 43.281-0.273l159.334-159.334c8.055-8.055 21.299-8.329 29.218 0 7.919 8.192 7.782 20.207-0.273 28.262l-35.635 35.635zM654.268 281.975l-61.167 61.167zM279.757 122.505h260.915c17.34 0 31.403 18.295 31.403 40.687h-323.857c0-22.528 14.063-40.687 31.403-40.687zM709.154 251.529v627.644c0 21.026-18.295 38.093-40.687 38.093v-703.829c22.528 0 40.687 17.067 40.687 38.093zM248.218 917.811h419.567c0 22.528-18.295 40.687-40.687 40.687h-338.057c-22.528 0-40.687-18.295-40.687-40.687zM206.848 876.578v-672.017c0-22.528 18.295-40.687 40.687-40.687v753.527c-22.528 0-40.687-18.295-40.687-40.687zM319.488 852.412h43.281v-623.002h-43.281v623.002zM408.781 785.647h43.281v-387.345h-43.281v387.345zM498.893 696.627h43.281v-279.484h-43.281v279.484zM593.374 786.876c4.506 7.373 6.69 16.247 6.827 26.624 9.83 1.911 17.476 6.007 22.938 12.151s8.192 14.473 8.192 24.849c0 7.373-1.365 13.79-3.959 19.115l-20.89 2.458c1.365-3.14 2.458-6.963 3.277-11.469 0.819-4.642 1.365-9.421 1.365-14.609 0-6.554-0.819-12.425-2.594-17.476s-4.506-9.967-8.192-15.019c0 0.273 0 0.546 0 0.819 0 11.196-2.458 20.617-7.509 28.399s-11.878 13.653-20.48 17.476c-8.602 3.823-18.569 5.734-29.628 5.734s-21.299-2.048-29.901-6.007c-8.602-3.959-15.155-9.83-19.797-17.34-4.642-7.646-7.1-16.657-7.1-27.034 0-10.923 2.594-20.343 7.646-28.262s12.151-13.926 21.026-17.886c8.875-4.096 18.978-6.144 30.174-6.144s20.89 2.048 29.218 6.007c8.329 3.959 14.882 9.83 19.388 17.476zM516.915 794.931c-6.417 4.779-9.694 11.742-9.694 20.617s3.004 15.019 9.011 19.524c6.007 4.506 14.746 6.69 26.214 6.69s20.48-2.321 26.897-6.827c6.417-4.642 9.557-11.332 9.557-20.343s-3.004-15.155-9.011-19.797c-6.007-4.642-14.746-7.1-26.078-7.1s-20.48 2.458-27.034 7.236z" />
<glyph unicode="&#xe920;" glyph-name="cheques" d="M10.24 673.143v-376.013c0-24.986 20.343-45.329 45.329-45.329v466.671c-24.986 0-45.329-20.343-45.329-45.329zM101.308 205.79h747.383c24.986 0 45.329 20.343 45.329 45.329h-838.042c0-24.986 20.343-45.329 45.329-45.329zM894.703 718.473v-466.671c24.986 0 45.329 20.343 45.329 45.329v376.013c0 24.986-20.343 45.329-45.329 45.329zM848.964 764.484h-747.52c-24.986 0-45.329-20.343-45.329-45.329h838.042c0 24.986-20.343 45.329-45.329 45.329zM175.036 131.516h747.383c24.986 0 45.329 20.343 45.329 45.329h-838.042c0-24.986 20.343-45.329 45.329-45.329zM968.431 644.198v-466.671c24.986 0 45.329 20.343 45.329 45.329v376.013c0 24.986-20.343 45.329-45.329 45.329zM129.024 639.283h693.043v-48.196h-693.043v48.196zM129.024 539.887h618.769v-48.196h-618.769v48.196zM129.024 439.671h519.782v-48.196h-519.782v48.196zM749.158 334.677c8.192-4.915 18.159-7.509 29.628-7.646 2.185-10.923 6.69-19.388 13.517-25.532 6.827-6.007 16.111-9.148 27.716-9.148 8.192 0 15.292 1.502 21.299 4.506l2.731 23.211c-3.413-1.502-7.646-2.731-12.834-3.686-5.052-0.956-10.513-1.502-16.247-1.502-7.373 0-13.79 0.956-19.388 2.867s-11.059 5.052-16.657 9.148c0.273 0 0.546 0 0.819 0 12.425 0 22.938 2.731 31.539 8.329s15.155 13.107 19.388 22.801c4.233 9.694 6.417 20.617 6.417 33.041s-2.185 23.62-6.554 33.178c-4.369 9.557-10.923 16.93-19.388 22.118s-18.569 7.782-30.037 7.782c-12.151 0-22.665-2.867-31.403-8.465s-15.428-13.517-19.934-23.347c-4.506-9.967-6.827-21.163-6.827-33.587s2.185-23.211 6.69-32.495c4.506-9.284 10.923-16.521 19.388-21.572zM758.033 419.738c5.325 7.1 12.971 10.786 22.801 10.786s16.794-3.413 21.709-10.103c5.052-6.69 7.509-16.384 7.509-29.082s-2.594-22.801-7.646-29.901c-5.052-7.1-12.698-10.65-22.665-10.65s-16.93 3.413-22.118 10.103c-5.188 6.69-7.782 16.384-7.782 28.945s2.731 22.801 8.055 30.037z" />
<glyph unicode="&#xe921;" glyph-name="compu" d="M1011.439 148.173l-85.606 205.892v414.242c0 19.934-16.111 36.045-36.045 36.045v-439.091h-756.122v438.955c-19.934 0-36.045-16.111-36.045-36.045v-416.427l-85.060-203.435h0.683v-92.57h998.195v92.433h0.137zM130.253 324.71h764.041l56.525-135.987h-346.112s-159.607 0-159.607 0h-371.644s56.798 135.851 56.798 135.851zM970.889 96.29h-917.231v52.019h369.459v-29.764h181.589v29.764h366.046v-52.019zM853.879 840.26h-684.169c-19.934 0-36.045-16.111-36.045-36.045h756.122c0 19.934-16.111 36.045-36.045 36.045z" />
<glyph unicode="&#xe922;" glyph-name="corazon" d="M275.524 97.792l-167.526-84.378 21.845-43.281 210.807 106.086c-12.015 23.893-41.233 33.587-65.126 21.572zM684.851 96.7c-40.141-33.178-90.522-51.61-142.541-52.156-48.060 3.14-94.481 18.705-134.622 45.329-22.528 13.653-51.746 7.782-67.174-13.653 57.071-46.558 126.976-74.547 200.431-80.145h5.325c60.894 1.775 119.603 23.484 167.117 61.713 63.898 46.967 130.253 97.758 170.53 128.887 21.026 16.384 24.986 46.694 8.602 67.721 0 0 0 0.137-0.137 0.273-1.092-0.819-107.179-84.105-207.667-157.696zM909.039 309.555c-27.716 38.229-81.101 46.831-119.467 19.251l-43.691-33.86c-12.971 13.517-30.993 21.026-49.698 21.026h-300.373c-26.761 0-48.469-21.709-48.469-48.469h349.116c10.65 0 19.388-8.192 19.797-18.842-0.956-11.196-10.377-19.797-21.572-19.661-143.77-14.336-233.199-28.945-234.155-29.082 4.369-26.351 28.945-44.51 55.433-40.823 39.868 5.598 102.946 13.653 183.501 21.709 36.181 1.775 64.717 31.266 65.536 67.447l53.111 41.233c16.657 11.742 39.731 7.919 51.61-8.738l20.89-27.443 11.878 9.011c14.746 11.196 17.613 32.222 6.417 46.967zM347.614 267.639c-12.425 23.757-41.779 32.905-65.536 20.48l-160.563-84.105 22.528-43.008 203.571 106.633zM341.606 925.867c-84.651 0-152.917-66.628-155.238-151.552v-3.686c0-15.292 2.321-30.72 6.963-46.012 30.583-116.463 160.427-235.793 251.221-312.798 19.251-16.384 48.196-13.79 64.307 5.734-78.234 65.126-240.435 200.567-271.428 319.078l-0.273 0.956c-3.413 11.059-5.052 22.118-5.052 33.041v2.731c1.911 59.938 49.835 106.769 109.5 106.769 34.953 0 85.743-15.565 107.998-39.731 15.838-17.067 40.141-23.347 61.85-14.882l0.546 0.273c-22.938 58.982-102.81 100.215-170.394 100.215zM837.769 774.315c-2.458 85.060-70.588 151.552-155.238 151.552-67.721 0-147.593-41.233-170.394-100.215l0.546-0.273c21.709-8.465 46.148-2.185 61.85 14.882 22.255 24.166 73.045 39.731 107.998 39.731 59.665 0 107.725-46.831 109.5-106.769v-2.731c0-10.923-1.775-21.982-5.052-33.041l-0.273-0.956c-30.857-118.511-193.195-253.815-271.428-319.078 16.111-19.524 45.056-22.118 64.307-5.734 90.795 77.005 220.638 196.335 251.221 312.798 4.642 15.155 6.963 30.72 6.963 46.012v3.686z" />
<glyph unicode="&#xe923;" glyph-name="cuadros" d="M436.77 356.796c-2.321 20.48-19.797 36.454-40.96 36.454h-274.295v-261.461c0-20.48 15.428-37.41 35.226-39.868 2.594-20.343 19.934-36.045 40.96-36.045h275.388v259.959c0 21.026-15.838 38.502-36.318 40.96zM426.53 102.434h-259.686v244.258h259.686v-244.258zM187.597 756.292h201.25v-201.523h-201.25v201.523zM630.238 549.717h210.398v210.534h-210.398v-210.534zM676.796 713.83h117.282v-117.555h-117.282v117.555zM899.618 819.917c-2.458 19.115-18.705 33.86-38.366 33.86h-270.336c-29.764 0-53.931-24.166-53.931-53.931v-270.336c0-19.661 14.746-36.045 33.86-38.366 2.458-19.115 18.705-33.86 38.366-33.86h270.336c29.764 0 53.931 24.166 53.931 53.931v270.336c0 19.661-14.746 36.045-33.86 38.366zM887.057 503.706c-1.638-1.638-3.686-2.458-6.007-2.458h-300.1v300.1c0 4.642 3.823 8.465 8.465 8.465h300.1v-300.1c0-2.185-0.819-4.369-2.458-6.007zM453.291 819.917c-2.458 19.115-18.705 33.86-38.366 33.86h-270.473c-29.764 0-53.931-24.166-53.931-53.931v-270.336c0-19.661 14.746-36.045 33.86-38.366 2.458-19.115 18.705-33.86 38.366-33.86h270.336c29.764 0 53.931 24.166 53.931 53.931v270.336c0 19.661-14.746 36.045-33.86 38.366zM440.73 503.706c-1.638-1.638-3.686-2.458-6.007-2.458h-300.237v300.1c0 4.642 3.823 8.465 8.465 8.465h300.1v-300.1c0-2.185-0.819-4.369-2.458-6.007zM900.983 389.837h-297.643c-8.602 0-15.565-6.554-15.565-14.609v-84.787h110.592v-109.909h-63.898v-63.898h-63.761v-74.274h74.274v63.898h53.385v-63.898h74.274v74.274h-63.761v53.385h107.042s0-110.319 0-110.319h86.289c7.509 0 13.653 5.871 13.653 12.971v303.377c0 7.646-6.554 13.926-14.746 13.926z" />
<glyph unicode="&#xe924;" glyph-name="cuidar" d="M226.372 132.335l-202.342-101.854 26.351-52.292 254.635 128.205c-14.609 28.945-49.835 40.55-78.643 25.941zM720.759 131.106c-60.484-44.373-115.098-64.444-172.305-63.078-50.108 1.092-103.629 19.115-162.611 54.75-27.17 16.384-62.396 9.148-80.964-16.521 87.791-63.488 166.98-95.164 242.21-96.802 2.185 0 4.369 0 6.417 0 67.447 0 133.53 24.439 201.796 74.547 77.278 56.661 157.286 118.101 205.892 155.648 25.668 19.797 30.174 56.661 10.103 82.193-1.229-0.956-129.434-101.581-250.812-190.601zM991.642 388.198c-33.451 46.148-98.031 56.525-144.316 23.347l-52.838-40.96c-15.292 15.701-36.591 25.532-60.075 25.532h-362.496c-32.358 0-58.573-26.214-58.573-58.573h421.751c12.698 0 23.757-9.967 24.030-22.665 0.273-14.473-13.38-22.391-26.078-23.62-173.67-17.34-281.805-35.089-282.761-35.226v0c5.188-31.949 34.953-53.794 67.038-49.289 48.060 6.69 124.382 16.521 221.73 26.214 45.739 4.506 78.916 38.912 78.78 81.647l64.171 49.835c9.694 6.827 21.436 9.557 33.178 7.646 11.878-1.911 22.255-8.329 29.218-18.159l25.259-33.178 14.336 10.923c17.749 13.517 21.299 38.912 7.782 56.798zM313.481 337.545c-15.019 28.672-50.381 39.731-79.053 24.713l-194.014-101.581 27.17-51.883 245.897 128.751zM637.201 745.779c47.377 0 86.016 38.639 86.016 86.016s-38.639 86.016-86.016 86.016-86.016-38.639-86.016-86.016 38.639-86.016 86.016-86.016zM637.201 875.759c24.166 0 43.964-19.661 43.964-43.964s-19.661-43.964-43.964-43.964-43.964 19.661-43.964 43.964 19.661 43.964 43.964 43.964zM836.267 648.841l-0.273 1.365c-3.686 17.886-21.709 51.61-63.078 51.61h-271.565c-41.37 0-59.392-33.724-63.078-51.61v-0.683s-37.137-267.605-37.137-267.605h42.462l36.045 260.233c0.683 3.004 5.325 17.613 21.709 17.613h271.565c15.565 0 20.48-12.834 21.709-17.749l36.045-260.096h42.462l-37.001 266.923zM670.788 442.812l-13.517 172.442h-42.325l-11.196-172.442 33.587-26.487 33.451 26.487z" />
<glyph unicode="&#xe925;" glyph-name="derecha" d="M218.044 44.544v0 620.134h516.642v-54.613h-462.029v-510.908c0-30.174-24.439-54.613-54.613-54.613zM531.388 449.911v0s195.652 195.652 195.652 195.652l-194.833 178.586c20.343 22.255 54.886 23.757 77.141 3.413l196.608-180.224-197.291-197.291c-21.299-21.299-55.842-21.299-77.278 0z" />
<glyph unicode="&#xe926;" glyph-name="desktop" d="M136.397 615.39c-22.391 0-40.55-18.159-40.55-40.55v-169.847c0-22.391 18.159-40.55 40.55-40.55v250.948zM176.128 323.345h170.394v-42.871h-43.554c-22.391 0-40.55-18.159-40.55-40.55h208.077c0 22.391-18.159 40.55-40.55 40.55h-42.871v42.871h169.711c22.391 0 40.55 18.159 40.55 40.55h-461.756c0-22.391 18.159-40.55 40.55-40.55zM597.197 616.346v-251.767c22.391 0 40.55 18.159 40.55 40.55v170.803c0 22.391-18.159 40.55-40.55 40.55zM556.1 656.077h-379.972c-22.391 0-40.55-18.159-40.55-40.55h461.073c0 22.391-18.159 40.55-40.55 40.55zM887.603 572.655v-292.181h-167.799v292.181c-22.391 0-40.55-18.159-40.55-40.55v-292.181h248.764v292.181c0 22.391-18.159 40.55-40.55 40.55zM847.599 613.751h-87.518c-22.391 0-40.55-18.159-40.55-40.55h168.482c0 22.391-18.159 40.55-40.55 40.55zM782.882 343.689c0-11.469 9.284-20.753 20.753-20.753s20.753 9.284 20.753 20.753-9.284 20.753-20.753 20.753-20.753-9.284-20.753-20.753zM761.993 530.876h83.285v-40.55h-83.285v40.55zM761.993 447.727h83.285v-40.55h-83.285v40.55z" />
<glyph unicode="&#xe927;" glyph-name="dinero" d="M512 261.495c10.923 0 21.572 0.546 32.222 1.638h301.466c0 19.934-16.111 36.045-36.045 36.045h-149.231c97.212 52.838 163.294 155.921 163.294 274.022 0 171.895-139.81 311.706-311.706 311.706s-311.706-139.81-311.706-311.706c0-118.101 66.082-221.184 163.294-274.022h-149.231c-19.934 0-36.045-16.111-36.045-36.045h301.466c10.65-1.092 21.299-1.638 32.222-1.638zM240.845 573.201c0 149.504 121.651 271.155 271.155 271.155s271.155-121.651 271.155-271.155-121.651-271.155-271.155-271.155-271.155 121.651-271.155 271.155zM545.86 404.855c14.746-12.971 34.543-19.524 59.392-19.524 17.749 0 32.905 3.14 45.739 9.557l5.871 49.698c-7.373-3.14-16.521-5.871-27.443-7.919s-22.528-3.14-34.816-3.14c-15.701 0-29.628 2.048-41.643 6.281-11.878 4.096-23.893 10.65-35.772 19.661 0.683 0 1.229 0 1.911 0 26.487 0 49.015 6.007 67.584 17.886s32.495 28.126 41.643 48.879c9.148 20.617 13.79 44.237 13.79 70.724s-4.779 50.79-14.199 71.134c-9.421 20.343-23.347 36.181-41.506 47.377s-39.731 16.794-64.444 16.794c-26.078 0-48.469-6.144-67.311-18.295s-33.041-28.809-42.735-50.108c-9.694-21.299-14.609-45.329-14.609-72.090s4.779-49.698 14.336-69.632c9.557-19.934 23.484-35.362 41.643-46.285 17.613-10.65 38.775-15.974 63.351-16.247 4.642-23.484 14.336-41.643 29.082-54.613zM471.996 531.831c-11.196 14.336-16.794 35.089-16.794 62.123s5.734 49.015 17.34 64.307c11.605 15.292 27.853 23.074 49.015 23.074s35.908-7.236 46.558-21.572c10.65-14.336 15.974-35.226 15.974-62.532s-5.461-48.879-16.384-64.171c-10.923-15.292-27.034-22.801-48.469-22.801s-36.181 7.236-47.377 21.572zM845.687 263.134v-44.51h-667.375v44.51c-22.391 0-40.55-18.159-40.55-40.55v-211.49h748.476v211.49c0 22.391-18.159 40.55-40.55 40.55zM845.687 51.644h-667.375v43.008h667.375v-43.008zM178.313 135.066v43.008h667.375v-43.008h-667.375z" />
<glyph unicode="&#xe928;" glyph-name="direccion" d="M752.572 849.681h-72.772l60.484-60.348h-253.542v-632.013h-203.025l60.484 60.348h-72.772l-85.743-85.743 85.743-85.606h72.772l-60.484 60.348h253.542v632.013h203.025l-60.484-60.348h72.772l85.743 85.743-85.743 85.606z" />
<glyph unicode="&#xe929;" glyph-name="docuemntos" d="M221.184 670.686v-437.453c0-22.391 18.159-40.55 40.55-40.55v518.554c-22.391 0-40.55-18.159-40.55-40.55zM678.571 192.137h-416.427c0-22.391 18.159-40.55 40.55-40.55h335.326c22.391 0 40.55 18.159 40.55 40.55zM719.667 230.912v439.774c0 22.391-18.159 40.55-40.55 40.55v-520.875c22.391 0 40.55 18.159 40.55 40.55zM433.493 64.614h287.676c22.391 0 40.55 18.159 40.55 40.55h-368.777c0-22.391 18.159-40.55 40.55-40.55zM762.402 583.305v-477.867c22.391 0 40.55 18.159 40.55 40.55v396.766c0 22.391-18.159 40.55-40.55 40.55zM345.839 664.405h249.037v46.421h83.695c0 22.391-18.159 40.55-40.55 40.55h-43.145v41.097h-39.595c-4.096 21.982-23.347 38.775-46.558 38.775h-77.005c-23.211 0-42.462-16.794-46.558-38.775h-39.458v-41.097h-43.281c-22.391 0-40.55-18.159-40.55-40.55h83.831v-46.421zM554.462 704.956h-168.073v47.104h168.073v-47.104zM303.787 609.519h134.349v-40.55h-134.349v40.55zM303.787 525.961h333.141v-40.55h-333.141v40.55zM303.787 442.539h333.141v-40.55h-333.141v40.55zM303.923 359.663h332.868v-125.201h-332.868v125.201z" />
<glyph unicode="&#xe92a;" glyph-name="documento" d="M142.404 845.039v-794.351c0-22.391 18.159-40.55 40.55-40.55v875.452c-22.391 0-40.55-18.159-40.55-40.55zM223.505-30.276h577.126c22.391 0 40.55 18.159 40.55 40.55h-658.227c0-22.391 18.159-40.55 40.55-40.55zM841.182 672.461v-662.46c22.391 0 40.55 18.159 40.55 40.55v581.359c0 22.391-18.159 40.55-40.55 40.55zM600.474 885.726l1.502-212.992h239.479c16.247 15.565 17.067 41.097 1.775 57.481l-144.725 154.146c-15.292 16.384-40.96 17.067-57.344 1.775l162.338-172.988h-161.246l-1.229 172.851c0 22.255-18.159 40.414-40.55 40.414h-377.515c-22.391 0-40.55-18.159-40.55-40.55h418.065zM267.332 842.718v-163.703h248.627v163.703h-248.627zM475.409 719.565h-167.663v82.603h167.663v-82.603zM267.196 552.721h502.716v-40.55h-502.716v40.55zM550.639 121.958h219.409v-40.55h-219.409v40.55zM267.196 385.741h502.716v-40.55h-502.716v40.55zM267.196 468.207h365.636v-40.55h-365.636v40.55zM267.196 302.319h365.636v-40.55h-365.636v40.55z" />
<glyph unicode="&#xe92b;" glyph-name="dolar" d="M771.004 939.383c-90.795 0-169.438-52.292-207.804-128.205-44.646-22.528-81.101-58.982-103.629-103.629-44.646-22.528-81.101-58.982-103.629-103.629-44.646-22.528-81.101-58.982-103.629-103.629-44.646-22.528-81.101-58.982-103.629-103.629-76.049-38.229-128.205-117.009-128.205-207.667 0-128.205 104.311-232.38 232.38-232.38 90.658 0 169.438 52.292 207.667 128.205 44.646 22.528 81.101 58.982 103.629 103.629 44.646 22.528 81.101 58.982 103.629 103.629 44.646 22.528 81.101 58.982 103.629 103.629 44.646 22.528 81.101 58.982 103.629 103.629 76.049 38.229 128.205 117.009 128.205 207.804 0 128.068-104.311 232.38-232.38 232.38zM436.087 165.103c-2.048-15.428-5.871-30.174-11.469-44.1-8.738-21.982-21.572-41.779-37.547-58.709-33.724-35.635-81.374-57.89-134.076-57.89-101.854 0-184.593 82.876-184.593 184.593 0 52.702 22.255 100.352 57.89 134.076 16.93 15.974 36.727 28.809 58.709 37.547 13.926 5.598 28.672 9.421 44.1 11.469 7.782 1.092 15.838 1.502 24.030 1.502s16.247-0.546 24.166-1.638c82.603-10.786 148.139-76.459 158.925-158.925 1.092-7.919 1.638-15.974 1.638-24.166s-0.546-16.111-1.502-24.030zM539.716 268.732c-2.048-15.428-5.871-30.174-11.469-44.1-8.738-21.982-21.572-41.779-37.547-58.709-2.321-2.458-4.779-4.915-7.373-7.373 0.273 2.185 0.546 4.369 0.819 6.554 0.819 7.919 1.229 15.838 1.229 24.030s-0.41 16.247-1.229 24.166c-2.867 27.716-10.65 53.931-22.391 77.961-22.665 46.285-60.348 83.968-106.769 106.769-24.030 11.742-50.244 19.524-77.961 22.391-7.919 0.819-15.974 1.229-24.166 1.229s-16.111-0.41-24.030-1.229c-2.185-0.273-4.369-0.546-6.554-0.819 2.321 2.458 4.779 4.915 7.373 7.373 16.93 15.974 36.727 28.809 58.709 37.547 13.926 5.598 28.672 9.421 44.1 11.469 7.782 1.092 15.838 1.502 24.030 1.502s16.247-0.546 24.166-1.638c82.603-10.786 148.139-76.459 158.925-158.925 1.092-7.919 1.638-15.974 1.638-24.166s-0.546-16.111-1.502-24.030zM643.345 372.361c-2.048-15.428-5.871-30.174-11.469-44.1-8.738-21.982-21.572-41.916-37.547-58.709-2.321-2.458-4.779-4.915-7.373-7.373 0.273 2.185 0.546 4.369 0.819 6.554 0.819 7.919 1.229 15.838 1.229 24.030s-0.41 16.247-1.229 24.166c-2.867 27.716-10.65 53.931-22.391 77.961-22.665 46.285-60.348 83.968-106.769 106.769-23.893 11.742-50.244 19.524-77.961 22.391-7.919 0.819-15.974 1.229-24.166 1.229s-16.111-0.41-24.030-1.229c-2.185-0.273-4.369-0.546-6.554-0.819 2.321 2.458 4.779 4.915 7.373 7.373 16.93 15.974 36.727 28.809 58.709 37.547 13.926 5.598 28.672 9.421 44.1 11.469 7.782 0.956 15.838 1.502 24.030 1.502s16.247-0.546 24.166-1.638c82.603-10.786 148.139-76.459 158.925-158.925 1.092-7.919 1.638-15.974 1.638-24.166s-0.546-16.111-1.502-23.893zM746.974 475.989c-2.048-15.428-5.871-30.174-11.469-44.1-8.738-21.982-21.572-41.916-37.547-58.709-2.321-2.458-4.779-4.915-7.373-7.236 0.273 2.185 0.546 4.369 0.819 6.554 0.819 7.919 1.229 15.838 1.229 24.030s-0.41 16.247-1.229 24.166c-2.867 27.716-10.65 53.931-22.391 77.961-22.665 46.285-60.348 83.968-106.769 106.769-24.030 11.742-50.244 19.524-77.961 22.391-7.919 0.819-15.974 1.229-24.166 1.229s-16.111-0.41-24.030-1.229c-2.185-0.273-4.369-0.546-6.554-0.819 2.321 2.458 4.779 4.915 7.373 7.236 16.93 15.974 36.727 28.809 58.709 37.547 13.926 5.598 28.672 9.421 44.1 11.469 7.782 1.092 15.838 1.502 23.893 1.502s16.247-0.546 24.166-1.638c82.466-10.786 148.139-76.459 158.925-158.925 1.092-7.919 1.638-15.974 1.638-24.166s-0.546-16.111-1.502-24.030zM839.134 535.518c-8.738-21.982-21.572-41.779-37.547-58.709-2.321-2.458-4.779-4.915-7.236-7.373 0.273 2.185 0.546 4.369 0.819 6.554 0.819 7.919 1.229 15.838 1.229 24.030s-0.41 16.247-1.229 24.166c-11.332 108.954-98.167 195.789-206.985 206.985-7.919 0.819-15.974 1.229-24.166 1.229s-16.111-0.41-24.030-1.229c-2.185-0.273-4.369-0.546-6.554-0.819 2.321 2.458 4.779 4.915 7.373 7.373 16.93 15.974 36.727 28.809 58.709 37.547 21.026 8.329 44.1 12.971 67.994 12.971 101.854 0 184.593-82.876 184.593-184.593 0-24.030-4.642-46.967-12.971-68.13zM897.843 573.065c1.365 9.967 2.048 20.207 2.048 30.447 0 128.068-104.311 232.38-232.38 232.38-10.377 0-20.48-0.683-30.447-2.048 33.724 35.635 81.374 57.89 134.076 57.89 101.854 0 184.593-82.876 184.593-184.593 0-52.702-22.255-100.489-57.89-134.076zM255.727 198.827c-9.421 2.731-16.794 5.325-22.118 7.509s-9.694 5.052-12.971 8.602c-3.277 3.55-4.915 7.919-4.915 13.244 0 7.509 3.277 13.244 9.83 16.93s15.292 5.598 26.078 5.598c9.011 0 18.432-1.229 28.126-3.413 9.694-2.321 18.432-5.325 26.078-9.284l-6.417 40.687c-11.059 4.915-24.439 7.919-40.141 8.875v28.809h-25.941v-29.628c-18.432-2.731-33.178-9.421-44.373-19.934s-16.794-24.030-16.794-40.414c0-11.742 2.867-21.572 8.465-29.218s12.425-13.517 20.343-17.476c7.919-3.959 17.203-7.509 27.989-10.65 9.967-3.004 17.613-5.461 22.938-7.646s9.557-4.915 12.698-8.465c3.14-3.55 4.642-7.919 4.642-13.244 0-14.609-11.059-21.845-33.178-21.845-10.65 0-21.982 1.638-33.997 4.642-12.015 3.14-22.255 6.963-30.72 11.332l6.69-42.052c6.963-2.594 15.019-4.642 24.030-6.417 9.011-1.638 18.022-2.594 27.034-2.731v-28.535h25.941v30.174c17.749 3.004 31.676 9.421 42.052 19.388s15.428 22.938 15.428 39.049-4.915 27.853-14.609 35.908c-9.83 8.055-23.893 14.882-42.325 20.207z" />
<glyph unicode="&#xe92c;" glyph-name="dowload" d="M511.454 135.885l241.527 283.716c7.782 9.148 9.421 21.845 3.959 32.631-5.052 10.24-15.838 16.521-27.307 16.521h-93.662v335.599c0 22.391-18.159 40.55-40.55 40.55v0c0 22.118-18.159 40.277-40.55 40.277h-167.117v-376.832c0-19.524 13.79-35.908 32.222-39.731h-129.57c-10.923 0-21.163-5.871-26.078-15.701-5.188-10.377-3.686-22.391 3.823-31.13l243.439-286.037zM387.618 428.203c22.118 0 39.458 17.749 39.868 39.731 0.273 0 0.41 0 0.683 0v376.695h167.117v-416.427h111.684l-195.516-229.786-195.516 229.786h71.817zM220.638 51.371h582.861v-40.55h-582.861v40.55z" />
<glyph unicode="&#xe92d;" glyph-name="edit" d="M113.323 623.172v-288.222c0-0.683 0.137-1.365 0.273-2.048 0-0.683-0.273-1.365-0.273-2.048v-193.058c0-25.532 20.753-46.148 46.148-46.148v577.809c-25.532 0-46.148-20.617-46.148-46.148zM206.438 45.5h288.222c0.683 0 1.365 0.137 2.048 0.273 0.683 0 1.365-0.273 2.048-0.273h193.058c25.532 0 46.148 20.753 46.148 46.148h-577.673c0-25.532 20.617-46.148 46.148-46.148zM784.247 416.87c0 25.532-20.753 46.148-46.148 46.148v-371.507c25.532 0 46.148 20.753 46.148 46.148v166.434c0 2.458-0.41 4.915-0.683 7.373 0.41 2.458 0.683 4.779 0.683 7.373v98.031zM520.465 715.605h-314.027c-25.532 0-46.148-20.753-46.148-46.148h406.46c0 25.532-20.753 46.148-46.148 46.148zM276.48 199.373l-5.734 139.537 395.537 395.537 145.135-145.135-395.537-395.537-139.537 5.734zM312.525 322.526l3.413-83.695 83.695-3.413 353.894 353.894-87.108 87.108-353.894-353.894zM724.446 734.447v0c-15.974 15.974-15.974 42.052 0 58.027l58.027 58.027 116.19-116.19c15.974-15.974 15.974-42.052 0-58.027v0s-116.19 116.19-116.19 116.19l-58.027-58.027zM894.976 730.761v0c15.974-15.974 15.974-42.052 0-58.027l-58.027-58.027-116.19 116.19c-15.974 15.974-15.974 42.052 0 58.027v0s116.19-116.19 116.19-116.19l58.027 58.027z" />
<glyph unicode="&#xe92e;" glyph-name="enlaces" d="M442.505 691.439v0c-19.251 19.251-19.251 50.381 0 69.495l139.127 139.127c19.251 19.251 50.381 19.251 69.495 0v0s-208.623-208.623-208.623-208.623zM964.062 587.127l-312.934 312.934c19.251 19.251 50.381 19.251 69.495 0l243.439-243.439c19.251-19.251 19.251-50.381 0-69.495v0zM651.127 204.561l-173.807 173.807c-19.251 19.251-19.251 50.381 0 69.495v0s173.807-173.807 173.807-173.807l312.934 312.934c19.251-19.251 19.251-50.381 0-69.495l-312.934-312.934zM581.495 204.561v0c19.251-19.251 19.251-50.381 0-69.495l-139.127-139.127c-19.251-19.251-50.381-19.251-69.495 0v0s208.623 208.623 208.623 208.623zM59.938 308.873l312.934-312.934c-19.251-19.251-50.381-19.251-69.495 0l-243.439 243.439c-19.251 19.251-19.251 50.381 0 69.495v0zM372.873 691.439l173.807-173.807c19.251-19.251 19.251-50.381 0-69.495v0s-173.807 173.807-173.807 173.807l-312.934-313.071c-19.251 19.251-19.251 50.381 0 69.495l312.934 312.934z" />
<glyph unicode="&#xe92f;" glyph-name="entrega-cheque" d="M703.42 535.518c19.251 11.196 25.941 35.908 14.746 55.296l-58.982 102.127c-11.059 19.251-35.499 25.941-54.75 15.155-11.332 18.705-35.499 25.122-54.613 14.336l-51.61-29.082c-52.156 56.115-125.884 89.429-213.948 96.256-68.949 5.461-122.197-6.963-124.382-7.509v-0.683s-0.137 0.683-0.137 0.683h-95.027v-40.55h112.367l40.414 7.509c18.295 1.365 40.55 1.775 64.717-0.137 74.547-6.144 134.758-31.812 179.541-76.322l-35.772-20.207-55.296 60.348-29.901-27.443 72.772-79.326 12.425-14.063 0.956-0.956c4.096-4.096 4.642-10.377 1.229-13.79-1.911-1.911-4.369-2.321-6.007-2.185-2.867 0-5.598 1.365-7.782 3.55l-19.797 19.524c-16.111 16.384-28.262 28.262-28.399 28.399l-3.277 3.14-104.721 36.045-13.244-38.366 88.474-30.447-27.307-16.111-21.026-12.151-55.706 16.93s-0.137 0-0.137 0c-5.871 5.325-12.971 11.742-20.070 18.022-1.229 1.092-2.458 2.048-3.686 3.004-36.591 29.218-77.824 34.679-90.931 35.635-1.229 0-2.458 0.137-3.686 0.273-0.41 0-0.546 0-0.546 0h-36.318v-40.55h76.868s0 0 0 0c1.911-1.911 28.945-26.351 51.337-46.421l15.428-8.602 19.934-6.007c-15.974-12.151-20.753-34.543-10.65-52.292-18.842-11.332-25.259-35.772-14.199-55.023l58.982-102.127c11.196-19.388 36.045-26.078 55.296-14.882l-99.396 172.169 98.987 57.071 39.731 23.347 19.661-19.251c9.557-9.421 21.982-14.882 35.089-15.292 0.546 0 0.956 0 1.502 0 13.107 0 25.259 4.915 34.406 14.063 19.115 19.115 18.705 50.654-0.683 70.588l-2.185 2.458 150.596 84.924 98.85-171.213-376.969-217.634c11.196-19.388 36.045-26.078 55.296-14.882l306.79 177.084c19.388 11.196 26.078 35.908 14.882 55.296zM879.957 188.041c-19.115 11.605-43.964 5.598-55.706-13.38-12.834 17.613-36.727 22.801-55.706 12.151-27.989-15.838-53.521-23.757-77.278-24.303-29.491-0.683-57.89 9.694-89.293 32.905-65.809 48.333-132.028 96.939-132.028 96.939-13.244-18.022-9.284-43.418 8.738-56.661 25.395-18.705 62.396-45.875 99.396-72.909 36.864-27.034 73.182-40.687 110.729-40.687 42.598 0 86.835 17.476 135.578 52.702l113.869-69.359 21.163 34.543-79.326 48.333zM482.782 307.098l0.273 0.41c3.004 4.096 7.373 7.236 12.288 8.192 5.188 1.092 10.513 0 14.882-3.14l32.495-25.259c1.092-24.166 20.207-43.418 46.285-46.012 91.614-9.148 148.412-18.432 149.094-18.569l6.554 40.004c-2.321 0.41-58.573 9.557-151.552 18.842-3.413 0.273-9.694 2.321-9.83 7.646 0 4.369 3.823 7.919 8.192 7.919h225.69s0 0 0 0l121.924-66.355 19.388 35.635-86.289 46.967c-19.661 10.65-44.237 3.413-55.023-16.111 0 22.391-18.159 40.55-40.55 40.55h-184.593c-12.425 0-23.893-4.642-32.631-12.151l-25.259 19.524c-12.971 9.421-28.945 13.107-44.646 10.513-15.428-2.458-28.945-10.786-38.366-23.211-6.417-7.236-5.871-18.295 1.365-24.713l17.203-15.428 12.971 14.609z" />
<glyph unicode="&#xe930;" glyph-name="escala" d="M842.957 402.807c-4.642 17.34-20.207 30.174-39.049 30.174v-30.447c-58.982-9.694-104.175-60.894-104.175-122.607 0-68.54 55.842-124.382 124.382-124.382s124.382 55.842 124.382 124.382c0 62.259-45.875 113.732-105.677 122.88zM824.252 196.096c-46.285 0-83.831 37.683-83.831 83.831s37.683 83.831 83.831 83.831 83.831-37.683 83.831-83.831-37.683-83.831-83.831-83.831zM532.207 404.855v28.126h272.521c0 22.391-18.159 40.55-40.55 40.55h-232.107v20.070c58.982 9.694 104.175 60.894 104.175 122.607 0 68.54-55.842 124.382-124.382 124.382s-124.382-55.842-124.382-124.382c0-61.713 45.193-112.913 104.175-122.607v-20.070h-231.561c-22.255 0-40.141-17.886-40.414-40.004-18.842-0.137-34.543-13.244-38.912-30.72-59.665-9.148-105.404-60.621-105.404-122.743 0-68.54 55.842-124.382 124.382-124.382s124.382 55.842 124.382 124.382c0 61.713-45.193 112.913-104.175 122.607v30.447h271.701v-28.126c-58.982-9.694-104.175-60.894-104.175-122.607 0-68.54 55.842-124.382 124.382-124.382s124.382 55.842 124.382 124.382c0 61.713-45.193 112.913-104.175 122.607zM428.032 616.073c0 46.285 37.683 83.831 83.831 83.831s83.831-37.683 83.831-83.831-37.683-83.831-83.831-83.831-83.831 37.683-83.831 83.831zM283.443 279.927c0-46.285-37.683-83.831-83.831-83.831s-83.831 37.683-83.831 83.831 37.683 83.831 83.831 83.831 83.831-37.683 83.831-83.831zM511.863 198.417c-46.285 0-83.831 37.683-83.831 83.831s37.683 83.831 83.831 83.831 83.831-37.683 83.831-83.831-37.683-83.831-83.831-83.831z" />
<glyph unicode="&#xe931;" glyph-name="escribir" d="M103.083 28.706h679.253c22.801 0 41.233 18.432 41.233 41.233h-761.719c0-22.801 18.432-41.233 41.233-41.233zM611.942 197.598h169.165v-84.787h-169.165v84.787zM777.148 759.569l-180.907-180.907h-493.158c-22.801 0-41.233-18.432-41.233-41.233h493.158l-85.47-85.47h-408.098v84.787c-22.801 0-41.233-18.432-41.233-41.233v-384.068c0-22.801 18.432-41.233 41.233-41.233v296.823h349.935l4.233-104.038 129.434-5.325 109.227 109.227h169.711v-296.823c22.801 0 41.233 18.432 41.233 41.233v383.932c0 22.801-18.432 41.233-41.233 41.233v-84.787h-85.060l172.851 172.851-134.622 134.622zM770.458 537.429l-240.845-240.845-77.687 3.14-2.731 67.311-0.41 10.24 328.363 328.363 80.828-80.828-87.518-87.518zM992.597 759.569l-107.725 107.725-53.794-53.794c-1.092-1.092-2.185-2.321-3.14-3.55l-0.273 0.273c-14.882-14.882-14.882-39.049 0-53.794l107.725-107.725 53.794 53.794c1.092 1.092 2.185 2.321 3.14 3.55l0.273-0.273c14.882 14.882 14.882 39.049 0 53.794zM935.39 702.362l-80.828 80.828 30.31 30.31 80.828-80.828-30.31-30.31z" />
<glyph unicode="&#xe932;" glyph-name="escudo-vacio" d="M897.024 676.557c-1.092 22.528-21.026 39.322-43.418 36.727 0.137-1.502 16.93-154.419-18.022-314.846-20.207-92.843-53.658-170.121-99.26-229.239-56.252-73.045-131.618-119.057-224.324-137.079 4.369-22.391 27.034-36.181 48.879-29.901 84.241 24.576 154.010 72.499 207.804 142.541 49.289 64.171 85.197 146.91 106.633 245.897 25.395 117.146 24.576 228.011 21.572 285.764zM515.823 852.275l337.783-138.991c7.782 21.299-2.594 44.783-23.62 53.385l-314.027 128.751-321.536-129.297c-21.026-8.602-31.403-32.085-23.757-53.385l345.156 139.537zM287.676 169.062c-45.602 59.255-79.053 136.397-99.26 229.239-34.953 160.427-18.159 313.344-18.022 314.846-22.391 2.594-42.189-14.199-43.418-36.727-3.004-57.754-3.823-168.619 21.572-285.764 21.436-98.987 57.344-181.726 106.633-245.897 53.931-70.178 123.699-117.965 207.804-142.541 21.845-6.417 44.51 7.509 48.879 29.901-92.57 18.022-168.073 64.034-224.324 137.079z" />
<glyph unicode="&#xe933;" glyph-name="espera" d="M722.534 728.030c0 107.998-87.927 195.925-195.925 195.925s-195.925-87.927-195.925-195.925 87.927-195.925 195.925-195.925 195.925 87.927 195.925 195.925zM526.609 572.655c-85.743 0-155.375 69.769-155.375 155.375s69.769 155.375 155.375 155.375 155.375-69.769 155.375-155.375-69.769-155.375-155.375-155.375zM537.668 710.007v144.179h-40.55v-104.038c0-22.391 18.159-40.55 40.55-40.55v0.41c0-22.391 18.159-40.414 40.55-40.414h60.894v40.55h-101.444zM955.324 137.933c0 22.391-18.159 40.55-40.55 40.55v-31.13h-332.732v31.13h-0.683c-21.982 0-39.868-17.886-39.868-39.868v-31.676h40.687v-134.895h40.55v134.895h249.719v-134.895h40.55v134.895h42.325v31.13zM624.503 461.79l-23.484-249.31c-11.059-7.236-18.295-19.661-18.295-33.86h331.639c0 15.019-8.192 27.989-20.343 34.953l-23.347 248.218c-3.14 32.768-27.716 57.344-57.207 57.344h-131.755c-29.491 0-54.204-24.713-57.207-57.344zM830.396 457.967l22.528-238.797h-210.398l22.528 238.797c1.092 11.605 8.465 20.617 16.93 20.617h131.755c8.329 0 15.838-9.148 16.93-20.617zM441.822 178.483v0-31.13h-332.595v31.13h-0.683c-21.982 0-39.868-17.886-39.868-39.868v-31.676h40.687v-134.895h40.55v134.895h249.719v-134.895h40.55v134.895h42.325v31.13c0 22.391-18.159 40.55-40.55 40.55zM424.482 178.62h17.067c0 15.019-8.192 27.989-20.343 34.953l-23.347 248.218c-3.14 32.768-27.716 57.344-57.207 57.344h-131.755c-29.491 0-54.204-24.713-57.207-57.344l-23.484-249.31c-11.059-7.236-18.295-19.661-18.295-33.86h314.573zM191.966 457.967c1.092 11.605 8.465 20.617 16.93 20.617h131.755c8.329 0 15.838-9.148 16.93-20.617l22.528-238.797h-210.398l22.528 238.797z" />
<glyph unicode="&#xe934;" glyph-name="estrategia" d="M944.947 852.412l-28.262 28.262 28.672 28.672-28.535 28.535-55.296-55.296c-15.701-15.701-15.701-41.37 0-57.071v0s-137.216-137.216-137.216-137.216c-77.414 70.724-177.084 109.363-282.624 109.363-112.094 0-217.634-43.691-296.823-123.017-79.326-79.189-123.017-184.593-123.017-296.687s43.691-217.634 123.017-296.823c79.326-79.326 184.73-123.017 296.823-123.017s217.634 43.691 296.823 123.017c79.326 79.326 123.017 184.73 123.017 296.823 0 105.267-38.502 204.663-108.954 282.078l137.353 137.353c15.701-15.838 41.37-15.838 57.071 0l55.296 55.296-28.535 28.535-28.672-28.672zM821.521 377.958c0-101.444-39.458-196.881-111.275-268.561-71.68-71.68-167.117-111.275-268.561-111.275s-196.881 39.458-268.561 111.275-111.275 167.117-111.275 268.561 39.458 196.881 111.275 268.561c71.68 71.68 167.117 111.275 268.561 111.275 94.891 0 184.457-34.543 254.225-97.621l-56.798-56.798c-52.838 46.285-121.924 74.411-197.427 74.411-165.342 0-299.691-134.485-299.691-299.691s134.485-299.691 299.691-299.691 299.691 134.485 299.691 299.691c0 75.366-27.989 144.316-74.001 197.018l56.798 56.798c62.805-69.769 97.212-159.198 97.212-253.815zM456.158 363.622l97.485 97.485c17.34-23.211 27.58-52.019 27.58-83.149 0-76.868-62.532-139.537-139.537-139.537s-139.537 62.532-139.537 139.537 62.532 139.537 139.537 139.537c31.403 0 60.348-10.377 83.695-27.989l-97.621-97.621 28.262-28.262zM553.916 518.042c-30.72 24.713-69.769 39.458-112.23 39.458-98.987 0-179.541-80.555-179.541-179.541s80.555-179.541 179.541-179.541 179.541 80.555 179.541 179.541c0 42.189-14.609 80.964-39.049 111.684l56.798 56.798c38.775-45.329 62.259-104.175 62.259-168.482 0-143.087-116.463-259.55-259.55-259.55s-259.55 116.463-259.55 259.55 116.463 259.55 259.55 259.55c64.444 0 123.563-23.62 169.028-62.669l-56.798-56.798z" />
<glyph unicode="&#xe935;" glyph-name="estrella" d="M324.949 357.478c12.015 13.653 11.059 34.543-2.458 46.967l-142.814 132.301 175.582 30.31c18.295 3.14 30.583 20.48 27.58 38.775 16.521-7.646 36.181-0.683 44.373 15.701l83.968 170.121c-16.794 8.192-37.001 1.365-45.193-15.292l-83.968-170.121s0.273 0 0.41-0.137l-175.991-30.447c-18.159-3.14-30.31-20.207-27.58-38.366-12.425-13.653-11.605-34.953 2.048-47.514l143.77-133.12s0 0.137 0.137 0.137l-57.89-195.789c-5.325-17.886 4.915-36.727 22.801-41.916v0l58.027 196.471c5.325 17.749-4.779 36.454-22.528 41.916zM467.217 211.934l-177.084-93.116c8.738-16.521 29.082-22.938 45.602-14.199l177.084 93.116c-8.738 16.521-29.082 22.801-45.602 14.199zM513.092 197.871l175.172-92.979c16.521-8.738 37.001-2.458 45.739 14.063v0s-175.172 92.979-175.172 92.979c-16.521 8.738-37.001 2.458-45.739-14.063zM699.733 356.659l143.77 133.12c13.653 12.561 14.473 33.86 2.048 47.514 2.731 18.159-9.421 35.226-27.58 38.366l-175.991 30.447s0.273 0 0.41 0.137l-83.968 170.121c-8.192 16.794-28.535 23.62-45.193 15.292l83.968-170.121c8.055-16.384 27.716-23.211 44.373-15.701-3.004-18.295 9.284-35.635 27.58-38.775l175.582-30.31-142.814-132.301c-13.38-12.425-14.473-33.178-2.458-46.967-17.749-5.461-27.853-24.030-22.528-41.916l58.027-196.471c17.886 5.325 28.126 24.030 22.801 41.916l-57.89 195.789s0-0.137 0.137-0.137v0z" />
<glyph unicode="&#xe936;" glyph-name="extintor" d="M744.926 863.334v-0.41c-6.144 21.709-28.399 34.816-50.381 29.355l-193.058-47.514v-59.255h-35.772c-5.188 39.731-39.322 70.588-80.418 70.588-44.783 0-81.237-36.454-81.237-81.237 0-37.547 25.532-69.086 60.211-78.37v-46.421c-71.407-8.875-127.113-70.861-127.113-144.725v-419.294c0-23.211 18.842-42.052 42.052-42.052v462.438c0 56.115 45.056 102.4 101.171 102.946 72.363 0.683 131.345-57.89 131.345-130.116v-434.722h-232.107c0-23.211 18.842-42.052 42.052-42.052h149.641c23.074 0 41.916 18.705 42.052 41.779 22.391 0.956 40.414 19.251 40.414 41.916v393.079c0 86.562-64.307 158.242-147.593 170.257v47.104c24.303 6.554 44.237 24.030 53.794 46.967h41.37v-47.104l193.468-40.414c22.801-4.779 45.056 9.83 49.835 32.631l-201.25 42.052v81.237l201.387 49.562v-174.763c23.211 0 42.052 18.842 42.052 42.052v92.433c0 23.211-18.842 42.052-42.052 42.052zM385.161 735.812c-21.572 0-39.185 17.613-39.185 39.185s17.613 39.185 39.185 39.185 39.185-17.613 39.185-39.185-17.613-39.185-39.185-39.185z" />
<glyph unicode="&#xe937;" glyph-name="extraer_1" d="M378.743 803.396h-44.373v22.255c0 24.576 19.934 44.373 44.373 44.373v0-66.628zM645.393 803.396h44.373s0 22.255 0 22.255c0 24.576-19.934 44.373-44.373 44.373v0-66.628zM778.65 25.975v0 666.283c24.576 0 44.373-19.934 44.373-44.373v-577.536c0-24.576-19.934-44.373-44.373-44.373zM245.35 25.975v0 666.283s0 0 0 0c-24.576 0-44.373-19.934-44.373-44.373v-577.536c0-24.576 19.934-44.373 44.373-44.373zM778.65 692.258h-533.163c0 24.576 19.934 44.373 44.373 44.373h444.279c24.576 0 44.373-19.934 44.373-44.373v0zM778.65 25.975h-533.163c0-24.576 19.934-44.373 44.373-44.373h444.279c24.576 0 44.373 19.934 44.373 44.373v0zM645.393 870.025h-266.513c0 24.576 19.934 44.373 44.373 44.373h177.63c24.576 0 44.373-19.934 44.373-44.373v0zM823.023 758.886h-621.909c0 24.576 19.934 44.373 44.373 44.373h533.026c24.576 0 44.373-19.934 44.373-44.373v0zM585.455 343.825l132.301-0.137-205.756 191.829-205.619-191.693h132.164v-160.973h146.91v160.973z" />
<glyph unicode="&#xe938;" glyph-name="extraer" d="M790.391 664.405v-109.363s-58.573 0-58.573 0v226.236c0 22.118-17.749 40.004-39.731 40.414 0 22.255-18.159 40.277-40.55 40.277l-576.444 0.41v-658.364l456.294-168.073c21.026-7.782 44.237 3.004 52.019 24.030l-467.9 172.305v570.3l467.627-187.324s0 0.41 0.137 0.683v-555.827c22.391 0 40.55 18.159 40.55 40.55v97.075h26.078c22.391 0 40.55 18.159 40.55 40.55h-66.492v337.92c0 22.255-18.022 40.414-40.277 40.55 7.373 20.48-2.594 43.281-22.938 51.337l-383.386 153.463h513.911v-266.65h-33.724v-121.378h33.724v-195.652c22.391 0 40.55 18.159 40.55 40.55v155.102h58.709v-109.227s158.379 169.984 158.379 169.984l-158.515 170.121z" />
<glyph unicode="&#xe939;" glyph-name="face-ID" d="M334.37 598.46c-32.768 0-59.255-26.487-59.255-59.255s26.487-59.255 59.255-59.255 59.255 26.487 59.255 59.255-26.487 59.255-59.255 59.255zM748.612 539.204c0 32.768-26.487 59.255-59.255 59.255s-59.255-26.487-59.255-59.255 26.487-59.255 59.255-59.255 59.255 26.487 59.255 59.255zM690.722 363.076h-357.444c37.82-58.573 103.765-124.928 178.722-124.928s140.902 66.355 178.722 124.928zM97.621 481.451v295.185h294.639c0 31.812-25.805 57.617-57.617 57.617h-294.639v-295.185c0-31.812 25.805-57.617 57.617-57.617zM689.357 834.253c-31.812 0-57.617-25.805-57.617-57.617h294.639v-295.185c31.812 0 57.617 25.805 57.617 57.617v295.185h-294.639zM97.621 414.549c-31.812 0-57.617-25.805-57.617-57.617v-295.185h294.639c31.812 0 57.617 25.805 57.617 57.617h-294.639v295.185zM926.379 414.549v-295.185h-294.639c0-31.812 25.805-57.617 57.617-57.617h294.639v295.185c0 31.812-25.805 57.617-57.617 57.617z" />
<glyph unicode="&#xe93a;" glyph-name="facebook" d="M579.447 6.861h-159.334c-12.425 0-22.391 10.103-22.391 22.391v331.503h-116.326c-12.288 0-22.255 9.967-22.391 22.255v151.962c0 12.425 10.103 22.391 22.391 22.391h116.326v85.060c0 87.654 24.166 152.781 71.68 193.741 57.344 49.425 147.183 64.034 274.569 44.919 12.015-1.911 20.89-12.288 20.89-24.439v-132.574c0-12.698-10.24-22.938-22.938-22.938h-88.474c-34.27 0-51.61-9.148-51.61-58.846v-85.060h132.437c13.107 0 23.757-10.65 23.757-23.757 0-0.956 0-1.911-0.137-2.867l-18.022-149.094c-1.502-12.015-11.742-20.89-23.757-20.89h-114.005v-331.503c0-12.425-10.103-22.391-22.391-22.391zM433.766 42.496h132.574v333.141c0 11.332 9.284 20.617 20.617 20.617h118.784l15.155 125.065h-134.076c-11.332 0-20.617 9.284-20.617 20.617v0 100.352c0 63.761 28.672 94.618 87.518 94.618h75.366v110.046c-111.138 15.428-188.553 2.867-236.203-38.093-39.868-34.27-59.255-88.747-59.255-166.571v-100.352c0-11.332-9.284-20.617-20.617-20.617h-118.101v-125.065h118.101c11.332 0 20.617-9.284 20.617-20.617v0-333.141z" />
<glyph unicode="&#xe93b;" glyph-name="faceid" d="M518.007 170.428c-74.001 0-143.497 28.809-195.789 81.101s-81.101 121.788-81.101 195.789 28.809 143.497 81.101 195.789c52.292 52.292 121.788 81.101 195.789 81.101s143.497-28.809 195.789-81.101c52.292-52.292 81.101-121.788 81.101-195.789s-28.809-143.497-81.101-195.789c-52.292-52.292-121.788-81.101-195.789-81.101zM518.007 693.897c-65.946 0-127.795-25.668-174.49-72.226-46.558-46.558-72.226-108.544-72.226-174.49s25.668-127.795 72.226-174.49c46.558-46.558 108.544-72.226 174.49-72.226s127.795 25.668 174.49 72.226c46.558 46.558 72.226 108.544 72.226 174.49s-25.668 127.795-72.226 174.49c-46.558 46.558-108.544 72.226-174.49 72.226zM424.073 485.547c-20.89 0-37.683 16.93-37.683 37.683s16.93 37.683 37.683 37.683 37.683-16.93 37.683-37.683-16.93-37.683-37.683-37.683zM612.079 485.547c-20.89 0-37.683 16.93-37.683 37.683s16.93 37.683 37.683 37.683 37.683-16.93 37.683-37.683-16.93-37.683-37.683-37.683zM518.007 355.021c-37.274 0-67.584 30.31-67.584 67.584h30.174c0-20.617 16.794-37.41 37.41-37.41s37.41 16.794 37.41 37.41h30.174c0-37.274-30.31-67.584-67.584-67.584zM878.592 800.939v-280.713c12.971 0 23.347 10.513 23.347 23.347v233.882c0 12.971-10.513 23.347-23.347 23.347zM599.927 800.939h280.713c0 12.971-10.513 23.347-23.347 23.347h-234.018c-12.971 0-23.347-10.513-23.347-23.347zM157.559 800.939h280.713c0 12.971-10.513 23.347-23.347 23.347h-234.018c-12.971 0-23.347-10.513-23.347-23.347zM157.559 522.274v280.713c-12.971 0-23.347-10.513-23.347-23.347v-234.018c0-12.971 10.513-23.347 23.347-23.347zM157.559 93.696v280.713c-12.971 0-23.347-10.513-23.347-23.347v-234.018c0-12.971 10.513-23.347 23.347-23.347zM436.224 93.696h-280.849c0-12.971 10.513-23.347 23.347-23.347h234.018c12.971 0 23.347 10.513 23.347 23.347zM878.592 93.696h-280.713c0-12.971 10.513-23.347 23.347-23.347h234.018c12.971 0 23.347 10.513 23.347 23.347zM878.592 372.361v-280.713c12.971 0 23.347 10.513 23.347 23.347v234.018c0 12.971-10.513 23.347-23.347 23.347z" />
<glyph unicode="&#xe93c;" glyph-name="feliz" d="M775.373 711.373c-70.315 70.315-163.84 109.090-263.373 109.090s-193.058-38.775-263.373-109.090-109.090-163.84-109.090-263.373 38.775-193.058 109.090-263.373 163.84-109.090 263.373-109.090 193.058 38.775 263.373 109.090c70.315 70.315 109.090 163.84 109.090 263.373s-38.775 193.058-109.090 263.373zM746.701 213.299c-62.669-62.669-146.091-97.212-234.701-97.212s-172.032 34.543-234.701 97.212c-62.669 62.669-97.212 146.091-97.212 234.701s34.543 172.032 97.212 234.701c62.669 62.669 146.091 97.212 234.701 97.212s172.032-34.543 234.701-97.212c62.669-62.669 97.212-146.091 97.212-234.701s-34.543-172.032-97.212-234.701zM436.361 550.263c0-28.051-22.74-50.79-50.79-50.79s-50.79 22.74-50.79 50.79c0 28.051 22.74 50.79 50.79 50.79s50.79-22.74 50.79-50.79zM689.22 550.263c0-28.051-22.74-50.79-50.79-50.79s-50.79 22.74-50.79 50.79c0 28.051 22.74 50.79 50.79 50.79s50.79-22.74 50.79-50.79zM512 364.442c-27.716 0-50.381 22.665-50.381 50.381h-40.55c0-50.108 40.823-90.931 90.931-90.931s90.931 40.823 90.931 90.931h-40.55c0-27.853-22.665-50.381-50.381-50.381z" />
<glyph unicode="&#xe93d;" glyph-name="flor-moneda" d="M790.801 289.621c-10.24-55.706-50.381-100.215-104.585-116.326-53.111-15.838-109.773-1.229-151.006 40.141 10.923 57.344 50.654 100.898 104.175 116.736 54.204 16.111 112.23 0.546 151.142-40.414 17.067 16.247 14.336 44.1-5.461 56.798-46.012 29.764-103.083 38.502-157.286 22.528-37.41-11.059-69.495-32.905-93.252-62.396v89.429c111.138 9.421 198.793 102.81 198.793 216.405 0 119.74-97.485 217.225-217.225 217.225s-217.225-97.485-217.225-217.225c0-112.23 85.606-204.937 195.106-215.996v-95.71c-24.030 32.358-57.89 56.388-97.758 68.267-54.204 16.111-111.275 7.373-157.286-22.528-19.797-12.834-22.528-40.687-5.461-56.798 39.049 41.097 96.939 56.525 151.142 40.414 53.385-15.838 93.116-59.392 104.175-116.736-41.097-41.37-97.758-55.979-151.006-40.141-54.204 16.111-94.345 60.757-104.585 116.326-23.211-4.233-36.045-29.082-26.487-50.654 22.255-50.108 65.399-88.61 119.603-104.585 18.022-5.325 36.318-7.919 54.477-7.919 40.141 0 79.462 12.834 113.186 37.956v-98.167h40.55v94.891c32.768-22.938 70.315-34.679 108.681-34.679 18.159 0 36.454 2.594 54.477 7.919 54.204 16.111 97.212 54.613 119.603 104.585 9.557 21.572-3.277 46.285-26.487 50.654zM516.233 435.849c-97.348 0-176.674 79.189-176.674 176.674s79.189 176.674 176.674 176.674 176.674-79.189 176.674-176.674-79.189-176.674-176.674-176.674zM559.787 509.030c-11.059 0-20.89 1.502-29.355 4.369-8.329 2.867-16.657 7.509-25.122 13.79 0.41 0 0.819 0 1.229 0 18.705 0 34.543 4.233 47.514 12.561 13.107 8.329 22.801 19.797 29.355 34.406 6.417 14.473 9.694 31.13 9.694 49.835s-3.277 35.635-9.967 50.108c-6.69 14.336-16.384 25.395-29.218 33.314s-27.853 11.742-45.329 11.742c-18.295 0-34.133-4.233-47.377-12.834s-23.211-20.343-30.037-35.226c-6.827-15.019-10.24-31.812-10.24-50.654s3.413-34.953 10.103-49.015c6.69-14.063 16.521-24.849 29.355-32.495 12.425-7.509 27.307-11.332 44.646-11.469 3.277-16.521 10.103-29.218 20.48-38.366s24.303-13.79 41.779-13.79c12.425 0 23.211 2.185 32.085 6.69l4.096 34.953c-5.188-2.185-11.605-4.096-19.251-5.598s-15.838-2.185-24.439-2.185zM473.634 578.116c-7.919 10.103-11.742 24.713-11.742 43.691s4.096 34.406 12.151 45.193c8.055 10.786 19.661 16.247 34.543 16.247s25.259-5.052 32.768-15.155c7.509-10.103 11.332-24.713 11.332-43.964s-3.823-34.406-11.605-45.056c-7.646-10.786-19.115-16.111-34.133-16.111s-25.395 5.052-33.314 15.155z" />
<glyph unicode="&#xe93e;" glyph-name="foco" d="M512 705.911c-135.714 0-246.033-110.455-246.033-246.033 0-90.658 49.289-169.711 122.47-212.446v-45.466c0-21.572 17.476-39.049 39.049-39.049v66.082c26.487-9.694 54.886-15.292 84.651-15.292s58.163 5.598 84.651 15.292v-66.082h-19.251s-130.116 0-130.116 0v0s-19.524 0-19.524 0v-42.052c0-21.572 17.476-39.049 39.049-39.049v0 42.052h91.068v-42.052c21.572 0 39.049 17.34 39.049 38.912v40.96c21.436 0.137 38.775 17.476 38.775 39.049v46.558c73.045 42.735 122.47 121.788 122.47 212.446 0 135.714-110.455 246.033-246.033 246.033zM512 252.757c-114.142 0-206.985 92.843-206.985 206.985s92.843 206.985 206.985 206.985 207.121-92.843 207.121-206.985-92.843-206.985-207.121-206.985zM368.777 542.754c-14.746-25.532-18.705-55.159-11.196-83.695l37.683 10.103c-4.915 18.432-2.321 37.683 7.236 54.067 9.557 16.521 24.986 28.262 43.418 33.178l-10.103 37.683c-28.535-7.646-52.292-25.805-67.038-51.337zM492.885 852.958h39.049v-71.134h-39.049v71.134zM723.846 698.447l51.711 51.784 27.631-27.592-51.711-51.784-27.631 27.592zM830.467 479.069l73.182 0.115 0.061-39.048-73.182-0.115-0.061 39.048zM120.233 478.336l73.181 0.345 0.184-39.048-73.181-0.345-0.184 39.048zM220.313 722.041l27.462 27.76 52.027-51.467-27.462-27.76-52.027 51.467zM505.856 43.042h12.971c21.572 0 39.049 17.476 39.049 39.049h-91.068c0-21.572 17.476-39.049 39.049-39.049z" />
<glyph unicode="&#xe93f;" glyph-name="formualario" d="M448.239 744.55h86.016v-40.55h-86.016v40.55zM449.468 660.992h249.856v-40.55h-249.856v40.55zM449.468 577.57h249.856v-40.55h-249.856v40.55zM576.717 327.168h120.422v-40.55h-120.422v40.55zM498.074 324.71c5.871 6.007 19.251 19.524 36.045 36.045l27.307 27.853c24.713 24.713 25.395 64.171 1.638 87.927-23.62 23.62-62.669 22.938-87.518-1.229l-19.524-17.067-50.517-46.285v387.891h343.381c0 19.934-16.111 36.045-36.045 36.045h-343.381v-304.060c-40.004-37.82-71.407-83.558-93.252-136.124-19.388-46.694-31.403-98.714-35.772-154.829-7.373-94.891 9.83-168.073 10.65-171.076l39.458 9.421c-0.137 0.683-16.384 69.905-9.557 158.515 3.959 51.746 15.019 99.669 32.768 142.404 14.199 34.27 33.041 64.99 55.842 92.433v-93.662l-24.849-22.801 27.443-29.901 110.865 101.581 19.797 17.34 0.956 0.956c8.875 8.875 22.665 9.694 30.72 1.775 7.919-7.919 7.236-21.709-1.775-30.72l-27.17-27.716c-22.801-22.391-39.458-39.458-39.595-39.595l-3.14-3.277-49.835-144.589 38.366-13.244 12.425 36.045h81.237l-15.838-59.255c-15.701-15.701-74.411-74.411-76.732-76.732l28.672-28.672c2.731 2.731 80.555 80.555 80.555 80.555l3.823 3.823 21.436 80.282h126.293c19.934 0 36.045 16.111 36.045 36.045h-272.93l21.982 63.761zM749.158 799.846v-538.897c19.934 0 36.045 16.111 36.045 36.045v466.807c0 19.934-16.111 36.045-36.045 36.045z" />
<glyph unicode="&#xe940;" glyph-name="graduacion" d="M1008.435 539.75l-496.299 284.262-496.572-277.299 169.028-79.872v-161.792c0-20.89 24.303-37.82 54.34-37.82v173.943l245.76-116.19v-173.397l-28.399 13.244-6.281 3.413c-0.956 0.546-2.048 0.546-3.004 0.956l-207.667 98.031c-12.834-27.17-8.055-56.388 10.786-65.399l77.551-37.001 98.167-45.602 86.562-47.241 89.293 52.019 87.791 40.687 77.551 37.001c18.842 9.011 23.757 38.229 10.786 65.399l-191.010-90.112c-2.185-0.683-4.506-1.092-6.554-2.321l-7.236-4.233-9.83-4.642-24.030-11.196v169.984l239.343 109.773v-167.117c30.037 0 54.34 16.93 54.34 37.82v154.283l68.267 31.266v-52.702c0-15.155 12.151-27.307 27.307-27.307s27.307 12.151 27.307 27.307v77.824l52.838 24.166zM511.863 761.344l338.466-193.877h-338.33c-15.155 0-27.307-12.151-27.307-27.307s12.151-27.307 27.307-27.307h306.79l-306.517-140.493-377.378 178.449 377.105 210.671z" />
<glyph unicode="&#xe941;" glyph-name="grafica-negativa" d="M423.39 479.13c-23.484 0-42.462-18.978-42.462-42.462h130.799c0 23.484-18.978 42.462-42.462 42.462h-46.012zM817.971 609.655h-45.193c-23.484 0-42.462-18.978-42.462-42.462h130.116c0 23.484-18.978 42.462-42.462 42.462zM902.895 86.050v438.682c0 23.484-18.978 42.462-42.462 42.462v0-481.143h-131.345v263.1h-0.683v218.044c-23.484 0-42.462-18.978-42.462-42.462v-175.718h-131.345v44.646c0 23.484-18.978 42.462-42.462 42.462v-87.108h-0.41v-263.1h-132.164v350.071c-23.484 0-42.462-18.978-42.462-42.462v-132.847h-88.201c-23.484 0-42.462-18.978-42.462-42.462h130.662v-132.301h-132.028v131.618c-23.347 0-42.325-18.978-42.325-42.325v-89.293h-87.791v568.661h-42.462v-610.987h958.327v42.462h-88.201zM686.080 305.186v-217.634h-131.345v217.634h131.345zM322.765 554.496l406.050 264.738-19.661 30.037c-2.048 3.14-6.281 4.096-9.421 2.048l-400.316-261.052-32.222 49.562-23.484-111.411 111.411-23.484-32.222 49.562z" />
<glyph unicode="&#xe942;" glyph-name="grafica-positiva" d="M364.134 224.768h-155.921c0 23.347 18.842 42.189 42.189 42.189h113.732v-42.189zM380.518 50.825h-215.723v131.072c0 23.211 18.842 42.189 42.189 42.189v0-131.072h132.574v99.806h40.96v-141.995zM511.727 442.129h-130.116c0 23.347 18.842 42.189 42.189 42.189h45.739c23.347 0 42.189-18.842 42.189-42.189v0zM554.598 50.825h-216.269v348.297c0 23.347 18.842 42.189 42.189 42.189v0-348.297h131.891v348.433c23.347 0 42.189-18.842 42.189-42.189v-348.433zM728.132 50.825h-216.132v303.923h216.132v-303.923zM554.325 94.515h131.618v216.542h-131.618v-216.542zM858.658 571.836h-129.434c0 23.347 18.842 42.189 42.189 42.189h45.056c23.347 0 42.189-18.842 42.189-42.189v0zM900.983 50.825h-215.723v478.822c0 23.347 18.842 42.189 42.189 42.189v0-478.822h131.209v478.822c23.347 0 42.189-18.842 42.189-42.189v-478.822zM988.774 50.825h-953.549v607.983h42.189v-565.794h911.36v-42.189zM280.693 555.727l377.4 246.118 23.195-35.567-413.081-269.387c-12.828 19.671-7.184 46.008 12.372 58.762zM616.858 845.175l87.518-134.212 23.347 110.865-110.865 23.347z" />
<glyph unicode="&#xe943;" glyph-name="graficas" d="M370.142 323.072h-149.641c0 22.391 18.159 40.55 40.55 40.55h109.227v-40.55zM385.707 156.092h-207.121v125.884c0 22.391 18.159 40.414 40.414 40.414v0-125.747h127.249v95.846h39.322v-136.397zM511.727 531.695h-124.928c0 22.391 18.159 40.55 40.55 40.55h43.964c22.391 0 40.55-18.159 40.55-40.55v0zM552.823 156.092h-207.667v334.507c0 22.391 18.159 40.55 40.55 40.55v0-334.507h126.566v334.507c22.391 0 40.55-18.159 40.55-40.55v-334.507zM719.394 156.092h-207.394v291.908h207.394v-291.908zM552.414 198.007h126.43v207.94h-126.43v-207.94zM844.868 656.35h-124.245c0 22.391 18.159 40.55 40.55 40.55h43.145c22.391 0 40.55-18.159 40.55-40.55v0zM885.419 156.092h-207.121v459.708c0 22.391 18.159 40.55 40.55 40.55v0-459.708h126.020v459.708c22.391 0 40.55-18.159 40.55-40.55v-459.708zM969.796 156.092h-915.593v583.817h40.55v-543.266h875.042v-40.55z" />
<glyph unicode="&#xe944;" glyph-name="huella" d="M819.883 427.383h83.012v41.233h-83.012c-10.24 153.737-133.53 277.026-287.266 287.266v83.012h-41.233v-83.012c-153.737-10.24-277.026-133.53-287.266-287.266h-83.012v-41.233h83.012c10.24-153.737 133.53-277.026 287.266-287.266v-83.012h41.233v83.012c153.737 10.24 277.026 133.53 287.266 287.266zM245.623 427.383h77.141v41.233h-77.141c9.967 130.935 114.825 235.793 245.76 245.76v-77.141h41.233v77.141c130.935-9.967 235.793-114.825 245.76-245.76h-77.141v-41.233h77.141c-9.967-130.935-114.825-235.793-245.76-245.76v77.141h-41.233v-77.141c-130.935 9.967-235.793 114.825-245.76 245.76zM121.105 633.822v0 205.073c-22.801 0-41.37-18.569-41.37-41.37v-122.334c0-22.801 18.569-41.37 41.37-41.37zM284.809 880.128h-122.334c-22.801 0-41.37-18.569-41.37-41.37h205.073c0 22.801-18.569 41.37-41.37 41.37zM861.525 880.128h-122.334c-22.801 0-41.37-18.569-41.37-41.37h205.073c0 22.801-18.569 41.37-41.37 41.37zM902.895 838.895v-205.073c22.801 0 41.37 18.569 41.37 41.37v122.334c0 22.801-18.569 41.37-41.37 41.37zM121.105 262.178c-22.801 0-41.37-18.569-41.37-41.37v-122.334c0-22.801 18.569-41.37 41.37-41.37v0 205.073zM162.475 15.872h122.334c22.801 0 41.37 18.569 41.37 41.37h-205.073c0-22.801 18.569-41.37 41.37-41.37zM739.191 15.872h122.334c22.801 0 41.37 18.569 41.37 41.37h-205.073c0-22.801 18.569-41.37 41.37-41.37zM902.895 262.178v-205.073c22.801 0 41.37 18.569 41.37 41.37v122.334c0 22.801-18.569 41.37-41.37 41.37zM532.617 448c0-11.386-9.23-20.617-20.617-20.617s-20.617 9.23-20.617 20.617c0 11.386 9.23 20.617 20.617 20.617s20.617-9.23 20.617-20.617z" />
<glyph unicode="&#xe945;" glyph-name="id" d="M75.366 698.129v-500.258c0-22.391 18.159-40.55 40.55-40.55v581.359c-22.391 0-40.55-18.159-40.55-40.55zM157.423 115.814h709.018c22.391 0 40.55 18.159 40.55 40.55h-789.982c0-22.391 18.159-40.55 40.55-40.55zM908.083 738.679v0-581.222c22.391 0 40.55 18.159 40.55 40.55v500.122c0 22.391-18.159 40.55-40.55 40.55zM866.577 780.186h-709.154c-22.391 0-40.55-18.159-40.55-40.55h790.118c0 22.391-18.159 40.55-40.55 40.55zM164.386 687.889h713.387v-40.55h-713.387v40.55zM164.386 236.646h359.083v-40.55h-359.083v40.55zM601.020 415.915v147.593c-22.391 0-40.55-18.159-40.55-40.55v-66.492c0-22.391 18.159-40.55 40.55-40.55zM838.042 563.371v-146.91h-236.749c0-22.391 18.159-40.55 40.55-40.55h155.921c22.118 0 40.141 17.886 40.414 39.868 22.255 0 40.277 18.159 40.277 40.55v66.492c0 22.391-18.159 40.55-40.55 40.55zM797.901 604.058h-155.921c-22.391 0-40.55-18.159-40.55-40.55h237.022c0 22.391-18.159 40.55-40.55 40.55zM560.879 335.633h318.669v-40.55h-318.669v40.55zM560.879 236.646h318.669v-40.55h-318.669v40.55zM160.836 295.219h359.083l1.229 329.728h-359.083l-1.229-329.728zM437.316 547.942c23.484 0 42.462-18.978 42.462-42.462s-18.978-42.462-42.462-42.462-42.462 18.978-42.462 42.462 18.978 42.462 42.462 42.462zM292.727 466.842l51.337-69.769 49.152 55.979 98.714-113.186h-303.104l103.902 126.976z" />
</font>
</defs>
</svg>
